Вы используете незарегистрированную версию компонента "Вкладки"!

Поиск

(Jazz, Experimental Big Band) Sun Ra and His Astro-Infinity Arkestra - Sound Sun Pleasure!! - 1991, FLAC (tracks+.cue), lossless

(Jazz, Experimental Big Band) Sun Ra and His Astro-Infinity Arkestra - Sound Sun Pleasure!! - 1991, FLAC (tracks+.cue), lossless
Треклист:
Sun Ra and His Astro-Infinity Arkestra - Sound Sun Pleasure!!
Жанр: Jazz, Experimental Big Band
Год выпуска диска: 1991
Производитель диска: USA, Evidence Music
Аудио кодек: FLAC
Тип рипа: tracks+.cue
Битрейт аудио: lossless
Продолжительность: 47:59
Трэклист:
1. 'Round Midnight (Hanighen, Williams, Monk) 4:00
2. You Never Told Me That You Care (Dotson, Sun Ra) 5:42
3. Hour of Parting (Schiffer, Spoliansky) 4:58
4. Back in Your Own Backyard (Jolson, Rose, Dreyer) 2:10
5. Enlightenment (Dotson, Sun Ra) 5:15
6. I Could Have Danced All Night (Lerner, Loewe) 3:15
*7. Deep Purple (DeRose, Parish) 3:58
*8. Piano Interlude (Sun Ra) 1:51
*9. Can This Be Love (Smith, James) 5:57
*10. Dreams Come True (Sun Ra) 3:04
*11. Don't Blame Me (Fields, McHugh) 2:49
*12. S' Wonderful (Gershwin, Gershwin) 2:15
*13. Lover Come Back To Me (Hammerstein, Romberg) 2:47
* bonus track
Доп. информация: Produced by: INFINITY, Inc. and Alton Abraham
Reissue produced by: Jerry Gordon
© 1991 Evidence Music Inc.
Thracks One thru Six were originally issued as the LP Sound Sun Pleasure (Saturn 512). It is thought to be recorded between 1958 and 1960 in Chicago.
Tracks Seven thru Thirteen are Sun Ra's earliest known recordings. They were first released in 1973 on an LP entitled Deep Purple (El Saturn 485). The recording dates and personnel on these tracks are the subject of much controversy and can only be surmised. Track Seven , Deep Purple, feature famous jazz violinist Stuff Smith, and is thought to be recorded between 1953 and 1954. Thracks Eight thru Thirteen are thought to be recorded in 1955.
 
Отчёт EAC
Exact Audio Copy V0.99 prebeta 5 from 4. May 2009
EAC extraction logfile from 14. July 2009, 15:58
Sun Ra & His Astro Infinity Arkestra / Sound Sun Pleasure!! + Sun Ra's First Six Sides
Used drive : ASUS DRW-20B1ST Adapter: 3 ID: 0
Read mode : Secure
Utilize accurate stream : Yes
Defeat audio cache : Yes
Make use of C2 pointers : No
Read offset correction : 6
Overread into Lead-In and Lead-Out : No
Fill up missing offset samples with silence : Yes
Delete leading and trailing silent blocks : No
Null samples used in CRC calculations : Yes
Used interface : Native Win32 interface for Win NT & 2000
Gap handling : Appended to previous track
Used output format : User Defined Encoder
Selected bitrate : 768 kBit/s
Quality : High
Add ID3 tag : No
Command line compressor : C:\Program Files\Exact Audio Copy\FLAC\FLAC.EXE
Additional command line options : -8 -V -T "ARTIST=%a" -T "TITLE=%t" -T "ALBUM=%g" -T "DATE=%y" -T "TRACKNUMBER=%n" -T "GENRE=%m" -T "COMMENT=EAC FLAC -8" %s
TOC of the extracted CD
Track | Start | Length | Start sector | End sector
---------------------------------------------------------
1 | 0:00.00 | 3:55.18 | 0 | 17642
2 | 3:55.18 | 5:36.50 | 17643 | 42892
3 | 9:31.68 | 4:52.62 | 42893 | 64854
4 | 14:24.55 | 2:07.13 | 64855 | 74392
5 | 16:31.68 | 5:09.27 | 74393 | 97594
6 | 21:41.20 | 3:11.30 | 97595 | 111949
7 | 24:52.50 | 4:02.38 | 111950 | 130137
8 | 28:55.13 | 1:55.67 | 130138 | 138829
9 | 30:51.05 | 6:00.40 | 138830 | 165869
10 | 36:51.45 | 3:07.38 | 165870 | 179932
11 | 39:59.08 | 2:53.00 | 179933 | 192907
12 | 42:52.08 | 2:18.10 | 192908 | 203267
13 | 45:10.18 | 2:48.45 | 203268 | 215912
Track 1
Filename I:\Torrent\Раздачи\Sun Ra & His Astro Infinity Arkestra - Sound Sun Pleasure!! (1991) [FLAC]\01. 'Round Midnight.wav
Pre-gap length 0:00:02.00
Peak level 87.9 %
Track quality 100.0 %
Test CRC 68027D50
Copy CRC 68027D50
Accurately ripped (confidence 4) [8ED8C3EB]
Copy OK
Track 2
Filename I:\Torrent\Раздачи\Sun Ra & His Astro Infinity Arkestra - Sound Sun Pleasure!! (1991) [FLAC]\02. You Never Told Me That You Care.wav
Pre-gap length 0:00:04.18
Peak level 88.4 %
Track quality 100.0 %
Test CRC 11229274
Copy CRC 11229274
Accurately ripped (confidence 3) [69C9BB91]
Copy OK
Track 3
Filename I:\Torrent\Раздачи\Sun Ra & His Astro Infinity Arkestra - Sound Sun Pleasure!! (1991) [FLAC]\03. Hour Of Parting.wav
Pre-gap length 0:00:03.33
Peak level 92.7 %
Track quality 100.0 %
Test CRC A31DF1CD
Copy CRC A31DF1CD
Accurately ripped (confidence 4) [A12D4694]
Copy OK
Track 4
Filename I:\Torrent\Раздачи\Sun Ra & His Astro Infinity Arkestra - Sound Sun Pleasure!! (1991) [FLAC]\04. Back In Our Own Backyard.wav
Pre-gap length 0:00:04.02
Peak level 88.7 %
Track quality 99.9 %
Test CRC 0F64B3B1
Copy CRC 0F64B3B1
Accurately ripped (confidence 4) [9329A165]
Copy OK
Track 5
Filename I:\Torrent\Раздачи\Sun Ra & His Astro Infinity Arkestra - Sound Sun Pleasure!! (1991) [FLAC]\05. Enlightenment.wav
Pre-gap length 0:00:03.70
Peak level 88.7 %
Track quality 100.0 %
Test CRC CD1B7497
Copy CRC CD1B7497
Accurately ripped (confidence 4) [558E8CA5]
Copy OK
Track 6
Filename I:\Torrent\Раздачи\Sun Ra & His Astro Infinity Arkestra - Sound Sun Pleasure!! (1991) [FLAC]\06. I Could Have Danced All Night.wav
Pre-gap length 0:00:03.37
Peak level 91.8 %
Track quality 100.0 %
Test CRC B36AB77E
Copy CRC B36AB77E
Accurately ripped (confidence 4) [C60A12AF]
Copy OK
Track 7
Filename I:\Torrent\Раздачи\Sun Ra & His Astro Infinity Arkestra - Sound Sun Pleasure!! (1991) [FLAC]\07. Deep Purple.wav
Pre-gap length 0:00:03.22
Peak level 86.1 %
Track quality 100.0 %
Test CRC 4555E938
Copy CRC 4555E938
Accurately ripped (confidence 4) [0F2C432B]
Copy OK
Track 8
Filename I:\Torrent\Раздачи\Sun Ra & His Astro Infinity Arkestra - Sound Sun Pleasure!! (1991) [FLAC]\08. Piano Interlude.wav
Pre-gap length 0:00:03.25
Peak level 79.8 %
Track quality 99.9 %
Test CRC A5E303DD
Copy CRC A5E303DD
Accurately ripped (confidence 4) [EA701F3B]
Copy OK
Track 9
Filename I:\Torrent\Раздачи\Sun Ra & His Astro Infinity Arkestra - Sound Sun Pleasure!! (1991) [FLAC]\09. Can This Be Love.wav
Pre-gap length 0:00:03.62
Peak level 93.0 %
Track quality 100.0 %
Test CRC EC01109A
Copy CRC EC01109A
Accurately ripped (confidence 4) [B22A104E]
Copy OK
Track 10
Filename I:\Torrent\Раздачи\Sun Ra & His Astro Infinity Arkestra - Sound Sun Pleasure!! (1991) [FLAC]\10. Dreams Come True.wav
Pre-gap length 0:00:02.55
Peak level 93.5 %
Track quality 100.0 %
Test CRC C69569DA
Copy CRC C69569DA
Accurately ripped (confidence 4) [C6CACA88]
Copy OK
Track 11
Filename I:\Torrent\Раздачи\Sun Ra & His Astro Infinity Arkestra - Sound Sun Pleasure!! (1991) [FLAC]\11. Don't Blame Me.wav
Pre-gap length 0:00:02.50
Peak level 96.6 %
Track quality 99.9 %
Test CRC EDB7A512
Copy CRC EDB7A512
Accurately ripped (confidence 3) [5F3B7BA6]
Copy OK
Track 12
Filename I:\Torrent\Раздачи\Sun Ra & His Astro Infinity Arkestra - Sound Sun Pleasure!! (1991) [FLAC]\12. 's Wonderful.wav
Pre-gap length 0:00:02.70
Peak level 83.4 %
Track quality 99.9 %
Test CRC 85D5EE70
Copy CRC 85D5EE70
Accurately ripped (confidence 4) [58BA9AC9]
Copy OK
Track 13
Filename I:\Torrent\Раздачи\Sun Ra & His Astro Infinity Arkestra - Sound Sun Pleasure!! (1991) [FLAC]\13. Lover Come Back To Me.wav
Pre-gap length 0:00:02.28
Peak level 89.4 %
Track quality 100.0 %
Test CRC D575F6C6
Copy CRC D575F6C6
Accurately ripped (confidence 4) [5C0A9075]
Copy OK
All tracks accurately ripped
No errors occurred
End of status report
Собственный рип оригинального диска. Сканы в комплекте.
Any questions -> support@pro-jazz.com. По всем вопросам пишите -> support@pro-jazz.com
14:17
249
Нет комментариев. Ваш будет первым!