Поиск

(Jazz, Experimental, Avantgarde) Nana Vasconcelos - Fragments: Modern Tradition - 1997, FLAC (tracks+.cue) lossless

(Jazz, Experimental, Avantgarde) Nana Vasconcelos - Fragments: Modern Tradition - 1997, FLAC (tracks+.cue) lossless
Треклист:
Naná Vasconcelos / Fragments: Modern Tradition
Жанр: Jazz, Experimental, Avantgarde,
Страна-производитель диска: USA
Год издания диска: 1997
Издатель (лейбл): Tzadik
Номер по каталогу: 7506
Страна: Brasil
Аудио кодек: FLAC (*.flac)
Тип рипа: tracks+.cue
Битрейт аудио: lossless
Продолжительность: 42:48
Источник (релизер): Ziolo4kin
Наличие сканов в содержимом раздачи: да
Треклист:
1 Vento Chamando Vento (Wind Calling Wind)
2 Mundo Verde (Green World)
3 Serato Das Memorias
4 Forrò Para Antero (Forro For Antero)
5 Vozes (Voices)
6 Let's Go to the Jungle
7 Marimbariboba
8 Caminho Dos Pigmeus (Road To The Pygmies)
9 Gorée
 
Лог создания рипа
EAC extraction logfile from 10. October 2007, 4:33 for CD
Nana Vasconcelos / Fragmentos
Used drive : TSSTcorpCD/DVDW SH-S183L Adapter: 3 ID: 1
Read mode : Secure with NO C2, accurate stream, disable cache
Read offset correction : 6
Overread into Lead-In and Lead-Out : No
Used output format : C:\Program Files\FLAC\flac.exe (User Defined Encoder)
128 kBit/s
Additional command line options : -V -8 -T "artist=%a" -T "title=%t" -T "album=%g" -T "date=%y" -T "tracknumber=%n" -T "genre=%m" %s
Other options :
Fill up missing offset samples with silence : Yes
Delete leading and trailing silent blocks : No
Installed external ASPI interface
Track 1
Filename D:\Torrents\up\Nana Vasconcelos - Fragmentos (1997) [FLAC]\01 - Vento Chamando Vento.wav
Pre-gap length 0:00:02.00
Peak level 62.9 %
Track quality 100.0 %
Test CRC D700C3E8
Copy CRC D700C3E8
Copy OK
Track 2
Filename D:\Torrents\up\Nana Vasconcelos - Fragmentos (1997) [FLAC]\02 - Mundo Verde.wav
Peak level 70.3 %
Track quality 99.9 %
Test CRC F9F4EE8B
Copy CRC F9F4EE8B
Copy OK
Track 3
Filename D:\Torrents\up\Nana Vasconcelos - Fragmentos (1997) [FLAC]\03 - Sertao Das Memorias.wav
Peak level 98.8 %
Track quality 100.0 %
Test CRC 9EE5DD55
Copy CRC 9EE5DD55
Copy OK
Track 4
Filename D:\Torrents\up\Nana Vasconcelos - Fragmentos (1997) [FLAC]\04 - Forro Para Antero.wav
Peak level 75.0 %
Track quality 100.0 %
Test CRC BB3B4581
Copy CRC BB3B4581
Copy OK
Track 5
Filename D:\Torrents\up\Nana Vasconcelos - Fragmentos (1997) [FLAC]\05 - Vozes.wav
Peak level 75.0 %
Track quality 100.0 %
Test CRC 91E50B69
Copy CRC 91E50B69
Copy OK
Track 6
Filename D:\Torrents\up\Nana Vasconcelos - Fragmentos (1997) [FLAC]\06 - Vamos Para A Selva.wav
Peak level 92.9 %
Track quality 100.0 %
Test CRC 0408C1B4
Copy CRC 0408C1B4
Copy OK
Track 7
Filename D:\Torrents\up\Nana Vasconcelos - Fragmentos (1997) [FLAC]\07 - Marimbariboba.wav
Peak level 69.8 %
Track quality 100.0 %
Test CRC EB16C64D
Copy CRC EB16C64D
Copy OK
Track 8
Filename D:\Torrents\up\Nana Vasconcelos - Fragmentos (1997) [FLAC]\08 - Caminho Dos Pigmeus.wav
Peak level 98.8 %
Track quality 99.9 %
Test CRC 531781BE
Copy CRC 531781BE
Copy OK
Track 9
Filename D:\Torrents\up\Nana Vasconcelos - Fragmentos (1997) [FLAC]\09 - Goree.wav
Peak level 63.0 %
Track quality 100.0 %
Test CRC DF494983
Copy CRC DF494983
Copy OK
No errors occured
End of status report
 
Об альбоме (сборнике)
Fragments: Modern Tradition is a collection of compositions written by Nana Vasconcelos for six films. The music is appropriately atmospheric, and takes on a myriad of ethnic influences from around the world. Indeed, the first track "Vento Chamando Vento" sounds amazingly similar to fellow multi-ethnicists Dead Can Dance. Vasconcelos utilizes a variety of percussion instruments -- cowbells, shakers and drums -- to achieve the sounds of open landscapes. The album is not all space and wind, however. A fine backing band helps Vasconcelos create a number of musical textures, including the incredibly peppy "Forró Para Antero" and the poly-rhythmic "Let's Go to the Jungle." While this album does not shine with the brilliance of other work like Saudades and Bush Dance, it is a worthwhile addition to Vasconcelos' catalog. ~ Stacia Proefrock
 
Состав
Personnel: Naná Vasconcelos (percussion); Pamela Driggs (vocals); Romero Lubambo (guitar); Egberto Gismonti (strings); Jim Cruz (flute); Cidinho (accordion); Rogerio (bass instrument); Cyro Baptista (pandeiro).
21:17
269
Нет комментариев. Ваш будет первым!