Поиск

(Ethnic Jazz, Greece) VA - Big Orchestras of the Sixties (Oi Megales Orhistres Tou `60) - (1995 Remastered), FLAC (image+.cue) lossless

Треклист:
Various Artists
Big Orchestras of the Sixties (Oi Megales Orhistres Tou `60)

Жанр: Ethnic Jazz
Страна-производитель диска: Greece
Год издания диска: 1995
Издатель (лейбл): PolyGram Records Greece
Номер по каталогу: 528 520-2
Страна: Greece
Аудио кодек: FLAC (*.flac)
Тип рипа: image+.cue
Битрейт аудио: lossless
Продолжительность: 00:49:24
Источник (релизер): Speedyclick
Наличие сканов в содержимом раздачи: да

Треклист:
01. Nicky Yiakoflef - They say (Lene, lene) - 02:23
02. Nicky Yiakoflef - Au revoir blue eyes (Kali antamosi matakia galana) - 02:41
03. Gerasimos Lavranos - A friend came tonight (Enas filos irthe apopse) - 02:09
04. Gerasimos Lavranos - My doll of wax (Kouklitsa mou kerenia) - 01:10
05. Giorgos Theodosiadis - Farewell (Sto kalo) - 03:11
06. Jacques Iakovidis - These eyes (Afta ta matia) - 03:09
07. Kostas Kapnisis - My love (Ayapi mou, ayapi) - 02:56
08. Kostas Klavas - The ivy (O kissos) - 02:53
09. Kostas Klavas - Beautiful girl (Morfonia) - 02:59
10. Kostas Klavas - The summers (Ta kalokairia) - 02:51
11. Mimis Plessas - Costume ball (Horos metamfiasmenon) - 04:29
12. Mimis Plessas - You left (Pires pia ta matia sou) - 01:58
13. Mimis Plessas - Tonight (Apopse) - 02:56
14. Mimis Plessas - Dancing dream (Horeftiko oniro) - 03:12
15. Mimis Plessas - The sky ends here (Edo telioni o ouranos) - 02:08
16. Mimis Plessas - You will come and find me (Tha rthis ke tha me vris) - 03:06
17. Mimis Plessas - What a pitty (Ti krima) - 03:11
18. Mimis Plessas - Slow of lovers - 01:53

 
Лог создания рипа
Exact Audio Copy V0.99 prebeta 5 from 4. May 2009
EAC extraction logfile from 12. April 2011, 3:52
Various / Big Orchestras of Sixties
Used drive : HL-DT-STDVDRAM GH10N Adapter: 3 ID: 0
Read mode : Secure
Utilize accurate stream : Yes
Defeat audio cache : Yes
Make use of C2 pointers : No
Read offset correction : 667
Overread into Lead-In and Lead-Out : No
Fill up missing offset samples with silence : Yes
Delete leading and trailing silent blocks : No
Null samples used in CRC calculations : Yes
Used interface : Native Win32 interface for Win NT & 2000
Used output format : User Defined Encoder
Selected bitrate : 1024 kBit/s
Quality : High
Add ID3 tag : No
Command line compressor : C:\Program Files\FLAC\flac.exe
Additional command line options : -V -5 -T "artist=%a" -T "title=%t" -T "album=%g" -T "date=%y" -T "tracknumber=%n" -T "genre=%m" -5 %s
TOC of the extracted CD
Track | Start | Length | Start sector | End sector
---------------------------------------------------------
1 | 0:00.00 | 2:23.70 | 0 | 10794
2 | 2:23.70 | 2:41.25 | 10795 | 22894
3 | 5:05.20 | 2:09.22 | 22895 | 32591
4 | 7:14.42 | 1:10.60 | 32592 | 37901
5 | 8:25.27 | 3:11.10 | 37902 | 52236
6 | 11:36.37 | 3:09.25 | 52237 | 66436
7 | 14:45.62 | 2:56.10 | 66437 | 79646
8 | 17:41.72 | 2:53.50 | 79647 | 92671
9 | 20:35.47 | 2:59.05 | 92672 | 106101
10 | 23:34.52 | 2:51.58 | 106102 | 118984
11 | 26:26.35 | 4:29.47 | 118985 | 139206
12 | 30:56.07 | 1:58.60 | 139207 | 148116
13 | 32:54.67 | 2:56.00 | 148117 | 161316
14 | 35:50.67 | 3:12.58 | 161317 | 175774
15 | 39:03.50 | 2:08.60 | 175775 | 185434
16 | 41:12.35 | 3:06.37 | 185435 | 199421
17 | 44:18.72 | 3:11.60 | 199422 | 213806
18 | 47:30.57 | 1:53.40 | 213807 | 222321
Range status and errors
Selected range
Filename S:\EAC Rips\GREEK\Big Orchestras of the Sixties\Various - Big Orchestras of Sixties.wav
Peak level 96.9 %
Range quality 100.0 %
Test CRC 5C328077
Copy CRC 5C328077
Copy OK
No errors occurred
AccurateRip summary
Track 1 not present in database
Track 2 not present in database
Track 3 not present in database
Track 4 not present in database
Track 5 not present in database
Track 6 not present in database
Track 7 not present in database
Track 8 not present in database
Track 9 not present in database
Track 10 not present in database
Track 11 not present in database
Track 12 not present in database
Track 13 not present in database
Track 14 not present in database
Track 15 not present in database
Track 16 not present in database
Track 17 not present in database
Track 18 not present in database
None of the tracks are present in the AccurateRip database
End of status report
 
Содержание индексной карты (.CUE)
REM DISCID 0C0B9412
REM COMMENT "ExactAudioCopy v0.99pb5"
PERFORMER "Various"
TITLE "Big Orchestras of Sixties"
FILE "Various - Big Orchestras of Sixties.flac" WAVE
TRACK 01 AUDIO
TITLE "They say (Lene, lene)"
PERFORMER "Nicky Yiakoflef"
INDEX 01 00:00:00
TRACK 02 AUDIO
TITLE "Au revoir blue eyes (Kali antamosi matakia galana)"
PERFORMER "Nicky Yiakoflef"
INDEX 00 02:22:27
INDEX 01 02:23:70
TRACK 03 AUDIO
TITLE "A friend came tonight (Enas filos irthe apopse)"
PERFORMER "Gerasimos Lavranos"
INDEX 00 05:03:52
INDEX 01 05:05:20
TRACK 04 AUDIO
TITLE "My doll of wax (Kouklitsa mou kerenia)"
PERFORMER "Gerasimos Lavranos"
INDEX 00 07:13:00
INDEX 01 07:14:42
TRACK 05 AUDIO
TITLE "Farewell (Sto kalo)"
PERFORMER "Giorgos Theodosiadis"
INDEX 00 08:23:60
INDEX 01 08:25:27
TRACK 06 AUDIO
TITLE "These eyes (Afta ta matia)"
PERFORMER "Jacques Iakovidis"
INDEX 00 11:34:70
INDEX 01 11:36:37
TRACK 07 AUDIO
TITLE "My love (Ayapi mou, ayapi)"
PERFORMER "Kostas Kapnisis"
INDEX 00 14:44:20
INDEX 01 14:45:62
TRACK 08 AUDIO
TITLE "The ivy (O kissos)"
PERFORMER "Kostas Klavas"
INDEX 00 17:40:27
INDEX 01 17:41:72
TRACK 09 AUDIO
TITLE "Beautiful girl (Morfonia)"
PERFORMER "Kostas Klavas"
INDEX 00 20:34:05
INDEX 01 20:35:47
TRACK 10 AUDIO
TITLE "The summers (Ta kalokairia)"
PERFORMER "Kostas Klavas"
INDEX 00 23:33:10
INDEX 01 23:34:52
TRACK 11 AUDIO
TITLE "Costume ball (Horos metamfiasmenon) "
PERFORMER "Mimis Plessas"
INDEX 00 26:24:67
INDEX 01 26:26:35
TRACK 12 AUDIO
TITLE "You left (Pires pia ta matia sou)"
PERFORMER "Mimis Plessas"
INDEX 00 30:54:40
INDEX 01 30:56:07
TRACK 13 AUDIO
TITLE "Tonight (Apopse)"
PERFORMER "Mimis Plessas"
INDEX 00 32:53:25
INDEX 01 32:54:67
TRACK 14 AUDIO
TITLE "Dancing dream (Horeftiko oniro)"
PERFORMER "Mimis Plessas"
INDEX 00 35:49:25
INDEX 01 35:50:67
TRACK 15 AUDIO
TITLE "The sky ends here (Edo telioni o ouranos)"
PERFORMER "Mimis Plessas"
INDEX 00 39:02:07
INDEX 01 39:03:50
TRACK 16 AUDIO
TITLE "You will come and find me (Tha rthis ke tha me vris)"
PERFORMER "Mimis Plessas"
INDEX 00 41:10:67
INDEX 01 41:12:35
TRACK 17 AUDIO
TITLE "What a pitty (Ti krima)"
PERFORMER "Mimis Plessas"
INDEX 00 44:17:30
INDEX 01 44:18:72
TRACK 18 AUDIO
TITLE "Slow of lovers"
PERFORMER "Mimis Plessas"
INDEX 00 47:29:15
INDEX 01 47:30:57
 
О сборнике
The sixties were the golden jazz years for the greek music. In this rare CD you will find 7 great jazz orchestras of legendary greek composers, arrangers and directors. Original recordings from LP and 45 rpm vinyl records, digitally remastered and compiled in a nice, collector's album.

 
Covers
20:16
286
Нет комментариев. Ваш будет первым!