Поиск

(jazz, ethnic fusion, accordion) [cd] Motion Trio - Play-Station 2001, FLAC (tracks+.cue), lossless

(jazz, ethnic fusion, accordion) [cd] Motion Trio - Play-Station 2001, FLAC (tracks+.cue), lossless
Треклист:
(jazz, ethnic fusion, accordion) [cd] Motion Trio - Play-Station 2001, FLAC (tracks+.cue), lossless


Motion Trio - Play-Station 2001

Жанр: jazz, ethnic fusion, accordion
Год выпуска: 2001
Издатель (лейбл): Not Two Records / MW 735-2
Формат: FLAC (tracks+.cue)
Битрейт аудио: lossless
Продолжительность 42`09
Источник: what.cd, chumph
Janusz Wojtarowicz
Pawel Baranek
Marcin Galazyn

tracks
UFO 5:18
Ants 2:00
Stars 5:41
Game IV 5:22
Moonscape 6:08
Game VI 4:37
Speed 2:25
Silence 7:42
Game Over 2:57


 
.log
Exact Audio Copy V0.99 prebeta 3 from 28. July 2007
EAC extraction logfile from 17. January 2009, 17:46
Motion Trio / Play Station
Used drive : PHILIPS DVD+-RW SDVD8820 Adapter: 1 ID: 0
Read mode : Secure
Utilize accurate stream : Yes
Defeat audio cache : Yes
Make use of C2 pointers : No
Read offset correction : 6
Overread into Lead-In and Lead-Out : No
Fill up missing offset samples with silence : Yes
Delete leading and trailing silent blocks : No
Null samples used in CRC calculations : Yes
Used interface : Native Win32 interface for Win NT & 2000
Gap handling : Appended to previous track
Used output format : User Defined Encoder
Selected bitrate : 128 kBit/s
Quality : High
Add ID3 tag : No
Command line compressor : C:\Program Files\Exact Audio Copy\Flac\flac.exe
Additional command line options : -V -8 -T "artist=%a" -T "title=%t" -T "album=%g" -T "date=%y" -T "tracknumber=%n" -T "genre=%m" %s
TOC of the extracted CD
Track | Start | Length | Start sector | End sector
---------------------------------------------------------
1 | 0:00.00 | 5:18.25 | 0 | 23874
2 | 5:18.25 | 2:00.31 | 23875 | 32905
3 | 7:18.56 | 5:41.21 | 32906 | 58501
4 | 13:00.02 | 5:21.57 | 58502 | 82633
5 | 18:21.59 | 6:08.11 | 82634 | 110244
6 | 24:29.70 | 4:36.71 | 110245 | 131015
7 | 29:06.66 | 2:24.41 | 131016 | 141856
8 | 31:31.32 | 7:41.33 | 141857 | 176464
9 | 39:12.65 | 2:56.33 | 176465 | 189697
Track 1
Filename C:\Documents and Settings\Alex Chetkowski\Desktop\Rips\Motion Trio - Play-Station\01 - UFO.wav
Pre-gap length 0:00:02.00
Peak level 98.8 %
Track quality 100.0 %
Test CRC 3DB34763
Copy CRC 3DB34763
Track not present in AccurateRip database
Copy OK
Track 2
Filename C:\Documents and Settings\Alex Chetkowski\Desktop\Rips\Motion Trio - Play-Station\02 - Ants.wav
Pre-gap length 0:00:03.00
Peak level 98.8 %
Track quality 100.0 %
Test CRC CB43714C
Copy CRC CB43714C
Track not present in AccurateRip database
Copy OK
Track 3
Filename C:\Documents and Settings\Alex Chetkowski\Desktop\Rips\Motion Trio - Play-Station\03 - Stars.wav
Pre-gap length 0:00:04.00
Peak level 74.6 %
Track quality 100.0 %
Test CRC 7BF7289F
Copy CRC 7BF7289F
Track not present in AccurateRip database
Copy OK
Track 4
Filename C:\Documents and Settings\Alex Chetkowski\Desktop\Rips\Motion Trio - Play-Station\04 - Game IV.wav
Pre-gap length 0:00:03.00
Peak level 98.8 %
Track quality 99.9 %
Test CRC 4B2DB6EA
Copy CRC 4B2DB6EA
Track not present in AccurateRip database
Copy OK
Track 5
Filename C:\Documents and Settings\Alex Chetkowski\Desktop\Rips\Motion Trio - Play-Station\05 - Moonscape.wav
Pre-gap length 0:00:03.00
Peak level 54.3 %
Track quality 100.0 %
Test CRC D8792C73
Copy CRC D8792C73
Track not present in AccurateRip database
Copy OK
Track 6
Filename C:\Documents and Settings\Alex Chetkowski\Desktop\Rips\Motion Trio - Play-Station\06 - Game VI.wav
Pre-gap length 0:00:03.00
Peak level 88.0 %
Track quality 99.9 %
Test CRC 73295887
Copy CRC 73295887
Track not present in AccurateRip database
Copy OK
Track 7
Filename C:\Documents and Settings\Alex Chetkowski\Desktop\Rips\Motion Trio - Play-Station\07 - Speed.wav
Pre-gap length 0:00:03.00
Peak level 98.8 %
Track quality 100.0 %
Test CRC 09840763
Copy CRC 09840763
Track not present in AccurateRip database
Copy OK
Track 8
Filename C:\Documents and Settings\Alex Chetkowski\Desktop\Rips\Motion Trio - Play-Station\08 - Silence.wav
Pre-gap length 0:00:03.00
Peak level 43.5 %
Track quality 100.0 %
Test CRC 96DF3E90
Copy CRC 96DF3E90
Track not present in AccurateRip database
Copy OK
Track 9
Filename C:\Documents and Settings\Alex Chetkowski\Desktop\Rips\Motion Trio - Play-Station\09 - Game Over.wav
Pre-gap length 0:00:03.00
Peak level 69.9 %
Track quality 100.0 %
Test CRC 726AADA4
Copy CRC 726AADA4
Track not present in AccurateRip database
Copy OK
None of the tracks are present in the AccurateRip database
No errors occurred
End of status report
 
.cue
REM GENRE Acoustic
REM DATE 2001
REM DISCID 6909E109
REM COMMENT "ExactAudioCopy v0.99pb3"
PERFORMER "Motion Trio"
TITLE "Play Station"
FILE "01 - UFO.wav" WAVE
TRACK 01 AUDIO
TITLE "UFO"
PERFORMER "Motion Trio"
INDEX 01 00:00:00
TRACK 02 AUDIO
TITLE "Ants"
PERFORMER "Motion Trio"
INDEX 00 05:15:25
FILE "02 - Ants.wav" WAVE
INDEX 01 00:00:00
TRACK 03 AUDIO
TITLE "Stars"
PERFORMER "Motion Trio"
INDEX 00 01:56:31
FILE "03 - Stars.wav" WAVE
INDEX 01 00:00:00
TRACK 04 AUDIO
TITLE "Game IV"
PERFORMER "Motion Trio"
INDEX 00 05:38:21
FILE "04 - Game IV.wav" WAVE
INDEX 01 00:00:00
TRACK 05 AUDIO
TITLE "Moonscape"
PERFORMER "Motion Trio"
INDEX 00 05:18:57
FILE "05 - Moonscape.wav" WAVE
INDEX 01 00:00:00
TRACK 06 AUDIO
TITLE "Game VI"
PERFORMER "Motion Trio"
INDEX 00 06:05:11
FILE "06 - Game VI.wav" WAVE
INDEX 01 00:00:00
TRACK 07 AUDIO
TITLE "Speed"
PERFORMER "Motion Trio"
INDEX 00 04:33:71
FILE "07 - Speed.wav" WAVE
INDEX 01 00:00:00
TRACK 08 AUDIO
TITLE "Silence"
PERFORMER "Motion Trio"
INDEX 00 02:21:41
FILE "08 - Silence.wav" WAVE
INDEX 01 00:00:00
TRACK 09 AUDIO
TITLE "Game Over"
PERFORMER "Motion Trio"
INDEX 00 07:38:33
FILE "09 - Game Over.wav" WAVE
INDEX 01 00:00:00
 
.accurip
[CUETools log; Date: 28/08/14 19:06:52; Version: 2.1.4]
[AccurateRip ID: 000e73fe-006ab17a-6909e109] found.
Track [ CRC | V2 ] Status
01 [c4ddc3e3|6b18c6e6] (4+0/4) Accurately ripped
02 [366c8ac4|1d2ba207] (3+0/3) Accurately ripped
03 [30ae6714|88a72351] (4+0/4) Accurately ripped
04 [2acee0da|b4beaa27] (4+0/4) Accurately ripped
05 [5d53e8d2|1a7d5a73] (4+0/4) Accurately ripped
06 [605bfa06|29a38f39] (4+0/4) Accurately ripped
07 [11301e16|0131cc37] (4+0/4) Accurately ripped
08 [bd132e8c|e54bbcc1] (4+0/4) Accurately ripped
09 [6d37c0bb|3ea826e5] (4+0/4) Accurately ripped
Track Peak [ CRC32 ] [W/O NULL] [ LOG ]
-- 98.8 [E98E5A06] [2E5BFF68]
01 98.8 [3DB34763] [813DB77A] CRC32
02 98.8 [CB43714C] [E36F4B15] CRC32
03 74.6 [7BF7289F] [020283B7] CRC32
04 98.8 [4B2DB6EA] [B7FCAD5D] CRC32
05 54.3 [D8792C73] [54495CA8] CRC32
06 88.0 [73295887] [DB3DD2A4] CRC32
07 98.8 [09840763] [5A15CF9A] CRC32
08 43.5 [96DF3E90] [611C8AC8] CRC32
09 69.9 [726AADA4] [966B0DDA] CRC32

другие релизы
16:31
270
Нет комментариев. Ваш будет первым!