Поиск

(Jazz / ECM) Evan Parker Electro-Acoustic Ensemble - Memory / Vision (ECM 1852) - 2003, FLAC (image+.cue), lossless

(Jazz / ECM) Evan Parker Electro-Acoustic Ensemble - Memory / Vision (ECM 1852) - 2003, FLAC (image+.cue), lossless
Треклист:
Evan Parker Electro-Acoustic Ensemble - Memory / Vision (ECM 1852)
Жанр: Jazz / ECM
Год выпуска диска: 2003
Производитель диска: Germany
Аудио кодек: FLAC
Тип рипа: image+.cue
Битрейт аудио: lossless
Продолжительность: 1:10:35
Evan Parker soprano saxophone, tapes and samples
Philipp Wachsmann violin, electronics
Agustí Fernandez piano, prepared piano
Barry Guy double-bass
Paul Lytton percussion, electronics
Lawrence Casserley signal processing instrument
Joel Ryan computer, sound-processing
Walter Prati electronics, sound-processing
Marco Vecchi sound processing, electronics
Part 1
Part 2
Part 3
Part 4
Part 5
Part 6
Part 7
Recorded October 2002
ECM 1852
 
EAC Report
Exact Audio Copy V0.99 prebeta 4 from 23. January 2008
EAC extraction logfile from 31. August 2008, 12:42
Evan Parker Electro-Acoustic Ensemble / Memory / Vision
Used drive : TSSTcorpCD/DVDW SH-S182M Adapter: 2 ID: 0
Read mode : Secure
Utilize accurate stream : Yes
Defeat audio cache : Yes
Make use of C2 pointers : No
Read offset correction : 6
Overread into Lead-In and Lead-Out : No
Fill up missing offset samples with silence : Yes
Delete leading and trailing silent blocks : No
Null samples used in CRC calculations : No
Used interface : Installed external ASPI interface
Used output format : User Defined Encoder
Selected bitrate : 1024 kBit/s
Quality : High
Add ID3 tag : No
Command line compressor : C:\Program Files\Exact Audio Copy\FLAC\FLAC.EXE
Additional command line options : -6 -V -T "ARTIST=%a" -T "TITLE=%t" -T "ALBUM=%g" -T "DATE=%y" -T "TRACKNUMBER=%n" -T "GENRE=%m" -T "COMMENT=%e" %s -o %d
TOC of the extracted CD
Track | Start | Length | Start sector | End sector
---------------------------------------------------------
1 | 0:00.00 | 10:22.30 | 0 | 46679
2 | 10:22.30 | 11:18.43 | 46680 | 97572
3 | 21:40.73 | 5:09.30 | 97573 | 120777
4 | 26:50.28 | 13:21.02 | 120778 | 180854
5 | 40:11.30 | 12:43.68 | 180855 | 238147
6 | 52:55.23 | 9:10.41 | 238148 | 279438
7 | 62:05.64 | 8:29.47 | 279439 | 317660
Range status and errors
Selected range
Filename F:\z\Evan Parker Electro-Acoustic Ensemble - Memory Vision.wav
Peak level 99.7 %
Range quality 99.9 %
Copy CRC 079C6898
Copy OK
No errors occurred
AccurateRip summary
Track 1 not present in database
Track 2 not present in database
Track 3 not present in database
Track 4 not present in database
Track 5 not present in database
Track 6 not present in database
Track 7 not present in database
None of the tracks are present in the AccurateRip database
End of status report
Приватный:
Нет (DHT включён)
Размер:
303.04 Мб (317,763,545 байт) » файлов: 5
Участники:
0 раздают, 0 качают (0 участников всего)
Внешние участники:
5 раздают, 1 качают (6 участников всего) [ Обновить ]
No seeders - write a personal message to user M0p94ok. Нет сидеров - пишите личное сообщение пользователю M0p94ok.
04:01
54
Нет комментариев. Ваш будет первым!