Поиск

(avantgarde, psychedelic, modern creative, Tzadik Radical Jewish Culture) Kramer - Let Me Explain Something To You About Art - 1998, FLAC (image+.cue), lossless

(avantgarde, psychedelic, modern creative, Tzadik Radical Jewish Culture) Kramer - Let Me Explain Something To You About Art - 1998, FLAC (image+.cue), lossless
Треклист:
Kramer - Let Me Explain Something To You About Art
Жанр: avantgarde, psychedelic, modern creative, Tzadik Radical Jewish Culture
Год выпуска диска: 1998
Производитель диска: USA (Tzadik)
Аудио кодек: FLAC
Тип рипа: image+.cue
Битрейт аудио: lossless
Продолжительность: 53.29
Трэклист:
1. Umberto D.
2. Odds Against Tomorrow
3. Jupiter and the Infinite
Доп. информация: Kramer - keyboards, bass guitar, tapes, etc
Deni Bonet - violins, viola, accordion
 
eac log
Exact Audio Copy V0.99 prebeta 4 from 23. January 2008
Отчёт EAC об извлечении, выполненном 12. октября 2008, 1:31
Kramer / Let Me Explain Something to You About Art
Дисковод: Optiarc DVD RW AD-7170A Adapter: 0 ID: 1
Режим чтения : Достоверность
Использование точного потока : Да
Отключение кэша аудио : Да
Использование указателей C2 : Нет
Коррекция смещения при чтении : 48
Способность читать области Lead-in и Lead-out : Нет
Заполнение пропущенных сэмплов тишиной : Да
Удаление блоков с тишиной в начале и конце : Нет
При вычислениях CRC использовались нулевые сэмплы : Да
Интерфейс : Встроенный Win32-интерфейс для Win NT/2000
Выходной формат : Пользовательский кодировщик
Выбранный битрейт : 768 kBit/s
Качество : Высокий
Добавление ID3-тэга : Нет
Утилита сжатия : D:\Program Files\Exact Audio Copy\FLAC\FLAC.EXE
Дополнительные параметры : -6 -V -T "ARTIST=%a" -T "TITLE=%t" -T "ALBUM=%g" -T "DATE=%y" -T "TRACKNUMBER=%n" -T "GENRE=%m" -T "COMMENT=%e" %s -o %d
TOC извлечённого CD
Трек | Старт | Длительность | Начальный сектор | Конечный сектор
---------------------------------------------------------------------
1 | 0:00.00 | 16:06.50 | 0 | 72499
2 | 16:06.50 | 14:31.72 | 72500 | 137896
3 | 30:38.47 | 22:50.38 | 137897 | 240684
Характеристики диапазона извлечения и сообщения об ошибках
Выбранный диапазон
Имя файла D:\EAC\Kramer - Let Me Explain Something to You About Art.wav
Пиковый уровень 96.6 %
Качество диапазона 99.9 %
CRC копии 15C4AF85
Копирование... OK
Ошибок не произошло
AccurateRip: сводка
Трек 1 нет в базе данных
Трек 2 нет в базе данных
Трек 3 нет в базе данных
Ни одного трека нет в базе AccurateRip
Конец отчёта
Приватный:
Нет (DHT включён)
Размер:
239.24 Мб (250,860,364 байт) » файлов: 3
Участники:
0 раздают, 0 качают (0 участников всего)
Внешние участники:
1 раздают, 0 качают (1 участников всего) [ Обновить ]
No seeders - write a personal message to user M0p94ok. Нет сидеров - пишите личное сообщение пользователю M0p94ok.
04:01
39
Нет комментариев. Ваш будет первым!