Поиск

(Jazz, Crossover Jazz, Bossa Nova) Ernie Watts - Unity - 1995, FLAC (track+.cue), lossless

(Jazz, Crossover Jazz, Bossa Nova) Ernie Watts - Unity - 1995, FLAC (track+.cue), lossless
Треклист:
Ernie Watts - Unity
Жанр: Jazz, Crossover Jazz, Bossa Nova
Год выпуска диска: 1995
Производитель диска: JVC/XRCD
Аудио кодек: FLAC
Тип рипа: track+.cue
Битрейт аудио: lossless
Продолжительность: 1 hour 9 minutes 51 seconds
Трэклист:
01. You Say You Care (5:10)
02. In Your Own Sweet Way (5:11)
03. Tricotism (7:00)
04. Unity (4:52)
05. Silver Hollow (7:03)
06. Some Kind A Blue (5:02)
07. Don't Look Now (6:49)
08. Joyous Reunion (6:17)
09. Lonely Hearts (5:53)
10. Sticky Kisses (4:57)
11. Soul Eyes (7:14)
12. Grand Central (4:23)
Доп. информация: Musicians:
Ernie Watts, tenor sax
Geri Allen, acoustic piano
Jack DeJohnette, drums
Eddie Gomez, acoustic bass
Steve Swallow, electric bass
 
EAC
Exact Audio Copy V0.99 prebeta 3 from 28. July 2007
EAC extraction logfile from 5. July 2009, 8:16
Ernie Watts / Unity
Used drive : HL-DT-STDVDRAM GSA-E10L Adapter: 2 ID: 0
Read mode : Secure
Utilize accurate stream : Yes
Defeat audio cache : Yes
Make use of C2 pointers : No
Read offset correction : 667
Overread into Lead-In and Lead-Out : No
Fill up missing offset samples with silence : Yes
Delete leading and trailing silent blocks : No
Null samples used in CRC calculations : Yes
Used interface : Installed external ASPI interface
Gap handling : Appended to previous track
Used output format : User Defined Encoder
Selected bitrate : 768 kBit/s
Quality : High
Add ID3 tag : No
Command line compressor : C:\Programmi\Exact Audio Copy\FLAC\FLAC.EXE
Additional command line options : -6 -A tukey(0.25) -A gauss(0.1875) -b 4096 -V -T "artist=%a" -T "title=%t" -T "album=%g" -T "date=%y" -T "tracknumber=%n" -T "genre=%m" %s --sector-align
Use compression offset : 0
TOC of the extracted CD
Track | Start | Length | Start sector | End sector
---------------------------------------------------------
1 | 0:00.37 | 5:10.35 | 37 | 23321
2 | 5:10.72 | 5:11.00 | 23322 | 46646
3 | 10:21.72 | 6:59.68 | 46647 | 78139
4 | 17:21.65 | 4:51.72 | 78140 | 100036
5 | 22:13.62 | 7:03.15 | 100037 | 131776
6 | 29:17.02 | 5:02.08 | 131777 | 154434
7 | 34:19.10 | 6:49.20 | 154435 | 185129
8 | 41:08.30 | 6:17.42 | 185130 | 213446
9 | 47:25.72 | 5:52.68 | 213447 | 239914
10 | 53:18.65 | 4:57.05 | 239915 | 262194
11 | 58:15.70 | 7:14.07 | 262195 | 294751
12 | 65:30.02 | 4:23.28 | 294752 | 314504
Track 1
Filename C:\Compress\01 - Ernie Watts - You Say You Care - Unity.wav
Pre-gap length 0:00:02.49
Peak level 100.0 %
Track quality 99.9 %
Test CRC 3D738E8D
Copy CRC 3D738E8D
Accurately ripped (confidence 4) [B99CC647]
Copy OK
Track 2
Filename C:\Compress\02 - Ernie Watts - In Your Own Sweet Way - Unity.wav
Pre-gap length 0:00:00.21
Peak level 100.0 %
Track quality 99.9 %
Test CRC 3DDD7511
Copy CRC 3DDD7511
Accurately ripped (confidence 4) [009EFF44]
Copy OK
Track 3
Filename C:\Compress\03 - Ernie Watts - Tricotism - Unity.wav
Peak level 100.0 %
Track quality 99.9 %
Test CRC 5BF9BC0B
Copy CRC 5BF9BC0B
Accurately ripped (confidence 4) [C7DCE4EF]
Copy OK
Track 4
Filename C:\Compress\04 - Ernie Watts - Unity - Unity.wav
Pre-gap length 0:00:01.05
Peak level 100.0 %
Track quality 100.0 %
Test CRC 8DF77756
Copy CRC 8DF77756
Accurately ripped (confidence 4) [CD4F251A]
Copy OK
Track 5
Filename C:\Compress\05 - Ernie Watts - Silver Hollow - Unity.wav
Pre-gap length 0:00:01.18
Peak level 100.0 %
Track quality 99.9 %
Test CRC 7F3C53A4
Copy CRC 7F3C53A4
Accurately ripped (confidence 4) [54CF0723]
Copy OK
Track 6
Filename C:\Compress\06 - Ernie Watts - Some Kind A Blue - Unity.wav
Pre-gap length 0:00:00.38
Peak level 100.0 %
Track quality 100.0 %
Test CRC D97A413D
Copy CRC D97A413D
Accurately ripped (confidence 4) [16291EE3]
Copy OK
Track 7
Filename C:\Compress\07 - Ernie Watts - Don't Look Now - Unity.wav
Pre-gap length 0:00:00.58
Peak level 100.0 %
Track quality 100.0 %
Test CRC D00E626E
Copy CRC D00E626E
Accurately ripped (confidence 4) [C65210DA]
Copy OK
Track 8
Filename C:\Compress\08 - Ernie Watts - Joyous Reunion - Unity.wav
Pre-gap length 0:00:00.52
Peak level 100.0 %
Track quality 99.8 %
Test CRC 6FB843EE
Copy CRC 6FB843EE
Accurately ripped (confidence 3) [8F477CE6]
Copy OK
Track 9
Filename C:\Compress\09 - Ernie Watts - Lonely Hearts - Unity.wav
Pre-gap length 0:00:00.12
Peak level 100.0 %
Track quality 100.0 %
Test CRC A33365A9
Copy CRC A33365A9
Accurately ripped (confidence 4) [61BB146B]
Copy OK
Track 10
Filename C:\Compress\10 - Ernie Watts - Sticky Kisses - Unity.wav
Pre-gap length 0:00:00.58
Peak level 100.0 %
Track quality 100.0 %
Test CRC CDDB6EE2
Copy CRC CDDB6EE2
Accurately ripped (confidence 4) [7F441A85]
Copy OK
Track 11
Filename C:\Compress\11 - Ernie Watts - Soul Eyes - Unity.wav
Pre-gap length 0:00:00.92
Peak level 99.8 %
Track quality 100.0 %
Test CRC 8716EEB6
Copy CRC 8716EEB6
Accurately ripped (confidence 4) [354C442C]
Copy OK
Track 12
Filename C:\Compress\12 - Ernie Watts - Grand Central - Unity.wav
Pre-gap length 0:00:03.65
Peak level 100.0 %
Track quality 99.9 %
Test CRC B865416E
Copy CRC B865416E
Accurately ripped (confidence 4) [BA7B0E24]
Copy OK
All tracks accurately ripped
No errors occurred
End of status report
По всем вопросам пишите личное сообщение пользователю M0p94ok.
10:36
195
Нет комментариев. Ваш будет первым!