Поиск

(Funk,Crossover Jazz) Herbie Mann - London Underground - 1974, FLAC (image+.cue), lossless

(Funk,Crossover Jazz) Herbie Mann - London Underground - 1974, FLAC (image+.cue), lossless
Треклист:
Herbie Mann - London Underground
Жанр: Funk,Crossover Jazz
Год выпуска диска: 1974
Производитель диска: U.S.of A.
Аудио кодек: FLAC
Тип рипа: image+.cue
Битрейт аудио: lossless
Продолжительность: 44,39
Трэклист:
1. Bitch (Mick Jagger/Keith Richard) 8:21
2. Something In The Air (John Keen) 3:34
3. Layla (Eric Clapton/Jim Gordon) 8:08
4. Spin Ball (Paddy Kingsland) 1:57
5. Mellow Yellow (Donovan Leich) 3:15
6. A Whiter Shade Of Pale (Keith Reed/Gary Brooker) 4:46
7. Memphis Spoon Bread & Dover Sole (Herbie Mann) 3:50
8. Paper Sun (Steve Winwood/Jim Capaldi) 6:41
9. You Never Give Me Your Money (John Lennon/Paul McCartney) 4:04
Доп. информация:
 
EAC Log
Exact Audio Copy V0.99 prebeta 4 from 23. January 2008
EAC extraction logfile from 16. December 2009, 16:03
Herbie Mann / London Underground
Used drive : _NEC DVD_RW ND-3500AG Adapter: 0 ID: 0
Read mode : Secure
Utilize accurate stream : Yes
Defeat audio cache : Yes
Make use of C2 pointers : No
Read offset correction : 48
Overread into Lead-In and Lead-Out : No
Fill up missing offset samples with silence : Yes
Delete leading and trailing silent blocks : No
Null samples used in CRC calculations : Yes
Used interface : Native Win32 interface for Win NT & 2000
Used output format : User Defined Encoder
Selected bitrate : 768 kBit/s
Quality : High
Add ID3 tag : No
Command line compressor : C:\Program Files\Exact Audio Copy\FLAC\FLAC.EXE
Additional command line options : -6 -V -T "ARTIST=%a" -T "TITLE=%t" -T "ALBUM=%g" -T "DATE=%y" -T "TRACKNUMBER=%n" -T "GENRE=%m" -T "COMMENT=%e" %s -o %d
TOC of the extracted CD
Track | Start | Length | Start sector | End sector
---------------------------------------------------------
1 | 0:00.00 | 8:21.05 | 0 | 37579
2 | 8:21.05 | 3:34.06 | 37580 | 53635
3 | 11:55.11 | 8:08.22 | 53636 | 90257
4 | 20:03.33 | 1:57.21 | 90258 | 99053
5 | 22:00.54 | 3:15.25 | 99054 | 113703
6 | 25:16.04 | 4:46.35 | 113704 | 135188
7 | 30:02.39 | 3:50.32 | 135189 | 152470
8 | 33:52.71 | 6:41.07 | 152471 | 182552
9 | 40:34.03 | 4:05.53 | 182553 | 200980
Range status and errors
Selected range
Filename J:\eMusic\Rip\Herbie Mann - London Underground.wav
Peak level 100.0 %
Range quality 99.9 %
Test CRC 50D54FEF
Copy CRC 50D54FEF
Copy OK
No errors occurred
AccurateRip summary
Track 1 not present in database
Track 2 not present in database
Track 3 not present in database
Track 4 not present in database
Track 5 not present in database
Track 6 not present in database
Track 7 not present in database
Track 8 not present in database
Track 9 not present in database
None of the tracks are present in the AccurateRip database
End of status report
 
auCDtect
-----------------------
DON'T MODIFY THIS FILE
-----------------------
PERFORMER: auCDtect Task Manager, ver. 1.0.3 B1 build 1.0.3.0
Copyright (c) 2008, 2009 y-soft. All rights reserved
http://y-soft.110mb.com
ANALYZER: auCDtect: CD records authenticity detector, version 0.8.2
Copyright (c) 2004 Oleg Berngardt. All rights reserved.
Copyright (c) 2004 Alexander Djourik. All rights reserved.
FILE: Herbie Mann - London Underground.flac
Size: 272955124 Hash: CA1552A2928D4B882F184D5C5236BE56 Accuracy: -m0
Conclusion: CDDA 100%
Signature: 53384B75865C1D50D1FAEB0E69B6E0A141F15822
 
Personnel
Herbie Mann (Flutes)
Mick Taylor (Guitar) - 1-3,6,7
Albert Lee (Guitar)
Pat Rebillot (Keyboards)
Fuzzy Samuels (Bass) - 1-4,6-8
Aynsley Dunbar (Drums) - 1,3-5,7,8
Ian McDonald (Alto Saxophone) - 1
Robby McIntosh (Drums) - 2,6
Stephane Grapelli (Violin) - 5
Al Gorry (Bass) - 5
Armen Halburian (Percussion) - 8
 
Info
During the 1960s and '70s, Herbie Mann continually searched for new playing contexts in which to place his flute. In December 1973, he traveled to London for five days of recording with a group of British rock musicians. The result was London Underground, an album tilted much more in a rock direction than the soul and R&B-drenched recordings he had been making for the previous five years. Highlights on this album include the Rolling Stones' "Bitch" (then-Stone Mick Taylor played guitar on this album), Thunderclap Newman's "Something in the Air," and "Paper Sun," from the Traffic canon. The real highlight, however, came about with the addition of Stephane Grappelli on the Donovan pop hit "Mellow Yellow." With guitarist Albert Lee adopting a Django Reinhardt stance, the cut is reminiscent of the old Hot Club of France recordings in the '30s. There are a couple of clunkers here ("Layla" doesn't work), but for fans of late-'60s/early-'70s rock, not a bad ride. - by Jim Newsom, AMG
Рип из другого ресурса.Все спасибо - Into09
 
И ещё - обратите внимание,пожалуйста
Прошу обратить внимание на то, что весь материал, представленный выше, предназначен исключительно для ознакомления! Приобретайте, пожалуйста, легальные диски, которые вне всякого сомнения станут достойным украшением вашей коллекции! В соответствие с ФЗ "Об авторском праве и смежных правах", Вы должны удалить все вышеозначенные трэки со своего жесткого диска и иных носителей сразу после ознакомления.
Ничего нового - старые вещи вывалились из рассохшегося шкафчика.
Download available for power users only.
10:34
199
Нет комментариев. Ваш будет первым!