Поиск

(Jazz-Brasil/Bossa Nova) Joao Gilberto - Joao - 1991 [USA/PolyGram/Verve], FLAC (image+.cue), lossless

(Jazz-Brasil/Bossa Nova) Joao Gilberto - Joao - 1991 [USA/PolyGram/Verve], FLAC (image+.cue), lossless
Треклист:
João Gilberto - João
Жанр: Jazz-Brasil / Bossa Nova
Год выпуска диска: 1991
Производитель диска: USA/PolyGram/Verve
Католог №: 848 507-2
Аудио кодек: FLAC
Тип рипа: image+.cue
Битрейт аудио: lossless
Продолжительность: 00:50:26
Трэклист:
01. Eu Sambo Mesmo (I Really Samba) (4:09)
02. Siga (Go On) (4:14)
03. Rosinha (Little Rose) (3:53)
04. Mãlaga (Malaga) (5:03)
05. Una Mujer (A Woman) (3:44)
06. Eu E Meu Coração (My Heart And I) (5:12)
07. You Do Something To Me (2:42)
08. Palpite Infeliz (Unhappy Remark) (3:57)
09. Ave Maria No Morro (Ave Maria On The Hill) (4:17)
10. Sampa (5:04)
11. Sorriu Para Mim (Smiled At Me) (3:08)
12. Que Reste-T-Il De Nos Amours (I Wish You Love) (5:04)
 
Лог EAC
Exact Audio Copy V0.99 prebeta 5 from 4. May 2009
Отчёт EAC об извлечении, выполненном 16. января 2010, 20:54
Joao Gilberto / Joao
Дисковод: PLEXTOR DVDR PX-800A Adapter: 0 ID: 0
Режим чтения : Достоверность
Использование точного потока : Да
Отключение кэша аудио : Да
Использование указателей C2 : Нет
Коррекция смещения при чтении : 48
Способность читать области Lead-in и Lead-out : Нет
Заполнение пропущенных сэмплов тишиной : Да
Удаление блоков с тишиной в начале и конце : Нет
При вычислениях CRC использовались нулевые сэмплы : Да
Интерфейс : Встроенный Win32-интерфейс для Win NT/2000
Выходной формат : Внутренние WAV-операции
Формат сэмплов : 44.100 Гц; 16 бит; стерео
TOC извлечённого CD
Трек | Старт | Длительность | Начальный сектор | Конечный сектор
---------------------------------------------------------------------
1 | 0:00.00 | 4:08.72 | 0 | 18671
2 | 4:08.72 | 4:14.10 | 18672 | 37731
3 | 8:23.07 | 3:52.53 | 37732 | 55184
4 | 12:15.60 | 5:02.67 | 55185 | 77901
5 | 17:18.52 | 3:43.53 | 77902 | 94679
6 | 21:02.30 | 5:12.25 | 94680 | 118104
7 | 26:14.55 | 2:42.27 | 118105 | 130281
8 | 28:57.07 | 3:56.43 | 130282 | 148024
9 | 32:53.50 | 4:16.62 | 148025 | 167286
10 | 37:10.37 | 5:03.45 | 167287 | 190056
11 | 42:14.07 | 3:08.35 | 190057 | 204191
12 | 45:22.42 | 5:03.43 | 204192 | 226959
Характеристики диапазона извлечения и сообщения об ошибках
Выбранный диапазон
Имя файла F:\Temp\___\Joao Gilberto\1991 Joao.wav
Пиковый уровень 97.8 %
Качество диапазона 99.9 %
CRC теста 176F3FDE
CRC копии 176F3FDE
Копирование... OK
Ошибок не произошло
AccurateRip: сводка
Трек 1 точность не определена (достоверность 2) [6E4CCB37], AccurateRip вернул [8E95EE2C]
Трек 2 нет в базе данных
Трек 3 точность не определена (достоверность 2) [5EB45CE1], AccurateRip вернул [51B2FCE6]
Трек 4 точность не определена (достоверность 2) [87EBB401], AccurateRip вернул [2C8A2A5E]
Трек 5 точность не определена (достоверность 2) [F0471653], AccurateRip вернул [CE06488F]
Трек 6 нет в базе данных
Трек 7 точность не определена (достоверность 2) [3DFCE174], AccurateRip вернул [DD66D283]
Трек 8 точность не определена (достоверность 2) [65938FE7], AccurateRip вернул [61640FC4]
Трек 9 точность не определена (достоверность 2) [08BE41F4], AccurateRip вернул [3C2A728B]
Трек 10 точность не определена (достоверность 2) [09F1C1BB], AccurateRip вернул [A7F82FEA]
Трек 11 точность не определена (достоверность 2) [AD06AC4D], AccurateRip вернул [C0A78604]
Трек 12 нет в базе данных
9 трек(и) не удалось проверить на точность
3 трек(и) не содержатся в базе AccurateRip
Ни один трек не прошёл проверки на точность
В вашей базе может быть иной вариант штамповки диска
Конец отчёта
Рип мой. Все обложки в раздаче.Не забываем говорить: Мои раздачи
10:58
296
Нет комментариев. Ваш будет первым!