Поиск

(Brazilian Popular Music/Forro/Frevo) Ze Ramalho, Alceu Valenca, Geraldo Azevedo & Elba Ramalho - O Grande Encontro - 1996, FLAC (image+.cue), lossless

Треклист:
Zé Ramalho, Alceu Valença, Geraldo Azevedo & Elba Ramalho - O Grande Encontro
Жанр: Brazilian Popular Music/Forro/Frevo
Год выпуска диска: 1996
Производитель диска: BMG Records - 7432141787-2 - Brazil
Аудио кодек: FLAC
Тип рипа: image+.cue
Битрейт аудио: lossless
Продолжительность: 59:12
Трэклист:
1. Sabiá
2. Coração Bobo
3. Jacarepaguá Blues
4. Pelas Ruas que Andei
5. Talismã
6. O Ciúme
7. Dia Branco: ao Vivo
8. O Amanhã é Distante (Tomorrow is a Long Time)
9. Admirável Gado Novo
10. O Trem das 7: ao Vivo
11. Chão de Giz: ao Vivo
12. Veja (Margarida)
13. A Prosa Impúrpura do Caicó
14. Tesoura do Desejo
15. Chorando e Cantando
16. Banho de Cheiro/Frevo Mulher
Доп. информация:
 
Info
Elba Ramalho, Alceu Valença, Geraldo Azevedo, and Zé Ramalho are all northeastern artists who knew fame and success in the southeast in the late '70s. On this album they revisit their biggest hits in wonderfully rhythmic acoustic renditions, differently than in their solo albums, which in general had to bend to the strong exigencies of the pop market in the '80s and '90s, watering down their talents. Here they cover "Sabiá" (Luiz Gonzaga/Zé Dantas), "Admirável Gado Novo," "Dia Branco," "Chão de Giz," "Trem Das Sete" (Raul Seixas), and many other classics.
They command a firm grasp over the audiences, who are deeply connected and responsive to their stimulus; the public goes delirious in the improvised verses ("desafios") in "Coração Bobo," filling the blanks in "Pelas Ruas Que Andei," and adding to the deep emotional electricity felt throughout this sincere release. ~ Alvaro Neder, All Music Guide
Эльба Ramalho, Alceu Валенсе, Жералду Асеведо, и Зе Ramalho все северо-восточные художники, которые знали, славы и успеха на юго-востоке в конце 70-х. На этом альбоме они пересмотреть свои хиты в крупнейшей чудесно ритмической акустических выдач, иначе, чем в своих сольных альбомов, которые в целом были подчиниться сильной остротой поп-рынка в 80-х и 90-х, разжижение свои таланты. Здесь они покрытие "Sabia" (Луис Гонзага / Zé Дантас), "Ново Admirável Гада", "Dia-Бранку", "Chao де Гиз", "Trem Das Сет" (Raul Seixas) и многих других классиков.
Они команда владеть над аудиторией, которая тесно связана и реагировать на их стимула; Публика идет в бреду импровизированные стихи ( "desafios") в "Coração Боба", заполняя пробелы в "Pelas Ruas Que Andei", и Добавление к глубокой эмоциональной электроэнергии ощущается во всей этой искренней освобождении. ~ Альваро Недер, All Music Guide
 
EAC Log
Exact Audio Copy V0.99 prebeta 5 from 4. May 2009
EAC extraction logfile from 19. September 2009, 9:11
Alceu Valença, Elba Ramalho, Geraldo Azevedo e Zé Ramalho / O Grande Encontro
Used drive : HL-DT-STDVDRAM GH20NS15 Adapter: 0 ID: 0
Read mode : Secure
Utilize accurate stream : Yes
Defeat audio cache : Yes
Make use of C2 pointers : No
Read offset correction : 667
Overread into Lead-In and Lead-Out : No
Fill up missing offset samples with silence : Yes
Delete leading and trailing silent blocks : No
Null samples used in CRC calculations : Yes
Used interface : Installed external ASPI interface
Used output format : User Defined Encoder
Selected bitrate : 1024 kBit/s
Quality : High
Add ID3 tag : No
Command line compressor : C:\Program Files\Exact Audio Copy\Flac\flac.exe
Additional command line options : -8 -A tukey(0.25) -A gauss(0.1875) -b 4096 -V -T "artist=%a" -T "title=%t" -T "album=%g" -T "date=%y" -T "tracknumber=%n" -T "genre=%m" %s --sector-align
TOC of the extracted CD
Track | Start | Length | Start sector | End sector
---------------------------------------------------------
1 | 0:00.00 | 3:34.66 | 0 | 16115
2 | 3:34.66 | 4:12.05 | 16116 | 35020
3 | 7:46.71 | 2:36.21 | 35021 | 46741
4 | 10:23.17 | 4:00.27 | 46742 | 64768
5 | 14:23.44 | 3:07.18 | 64769 | 78811
6 | 17:30.62 | 4:00.07 | 78812 | 96818
7 | 21:30.69 | 2:46.41 | 96819 | 109309
8 | 24:17.35 | 3:35.61 | 109310 | 125495
9 | 27:53.21 | 5:15.61 | 125496 | 149181
10 | 33:09.07 | 3:10.11 | 149182 | 163442
11 | 36:19.18 | 4:48.32 | 163443 | 185074
12 | 41:07.50 | 3:46.57 | 185075 | 202081
13 | 44:54.32 | 2:34.13 | 202082 | 213644
14 | 47:28.45 | 4:07.33 | 213645 | 232202
15 | 51:36.03 | 3:38.19 | 232203 | 248571
16 | 55:14.22 | 3:58.44 | 248572 | 266465
Range status and errors
Selected range
Filename D:\Torrents.ru 2\O Grande Encontro\Zé Ramalho, Alceu Valença, Geraldo Azevedo & Elba Ramalho - O Grande Encontro\Zé Ramalho, Alceu Valença, Geraldo Azevedo & Elba Ramalho - O Grande Encontro.wav
Peak level 98.8 %
Range quality 100.0 %
Test CRC 0F7C8813
Copy CRC 0F7C8813
Copy OK
No errors occurred
AccurateRip summary
Track 1 accurately ripped (confidence 2) [275B6200]
Track 2 accurately ripped (confidence 2) [85CA28A6]
Track 3 accurately ripped (confidence 2) [84BAC4BA]
Track 4 accurately ripped (confidence 2) [C49676C6]
Track 5 accurately ripped (confidence 2) [9CF0059C]
Track 6 accurately ripped (confidence 2) [FFDA12C1]
Track 7 accurately ripped (confidence 2) [8C0D77DF]
Track 8 accurately ripped (confidence 2) [D4EDE571]
Track 9 accurately ripped (confidence 2) [145CBC0C]
Track 10 accurately ripped (confidence 2) [F0F48589]
Track 11 accurately ripped (confidence 2) [78ECF34C]
Track 12 accurately ripped (confidence 2) [C4AE46F1]
Track 13 accurately ripped (confidence 2) [57A4DFFE]
Track 14 accurately ripped (confidence 2) [544D65C1]
Track 15 accurately ripped (confidence 2) [FD2B1078]
Track 16 accurately ripped (confidence 2) [EF947C18]
All tracks accurately ripped
End of status report
 
Audicohecker
AUDIOCHECKER v2.0 beta (build 457) - by Dester - opdester@freemail.hu
~~~~~~~~~~~~~~~~~~~~~~~~~~~~~~~~~~
-=== DO NOT EDIT THIS FILE! ===-
Path: ...\Zé Ramalho, Alceu Valença, Geraldo Azevedo & Elba Ramalho - O Grande Encontro
1 -=- Zé Ramalho, Alceu Valença, Geraldo Azevedo & Elba Ramalho - O Grande Encontro.flac -=- CDDA (100%)
200112468
 
Tau Analyzer
По всем вопросам пишите личное сообщение пользователю M0p94ok.
10:57
204
Нет комментариев. Ваш будет первым!