Поиск

(Jazz, Bossa Nova) Walter Wanderley - Rain Forest - 1966, FLAC (tracks+.cue), lossless

(Jazz, Bossa Nova) Walter Wanderley - Rain Forest - 1966, FLAC (tracks+.cue), lossless
Треклист:
Walter Wanderley - Rain Forest
Жанр: Jazz, Bossa Nova
Год выхода альбома: 1966
Производитель диска: Россия
Аудио кодек: FLAC
Тип рипа: tracks+.cue
Битрейт аудио: lossless
Продолжительность: 34:29
Трэклист:
1. Summer Samba (3:06)
2. It's Easy to Say Goodbye (2:03)
3. Cried, Cried (2:26)
4. Rain (3:48)
5. The Girl from Ipanema (2:38)
6. Beloved Melancholy (2:43)
7. Taste of Sadness (2:53)
8. Beach Samba (3:54)
9. Call Me (2:25)
10. Cry out Your Sadness (2:46)
11. The Great Love (3:04)
12. Song of the Jet (2:43)
 
Отчет ЕАС
Exact Audio Copy V0.99 prebeta 4 from 23. January 2008
EAC extraction logfile from 11. October 2008, 22:38
Walter Wanderley / Rain Forest
Used drive : _NEC DVD_RW ND-4570A Adapter: 1 ID: 1
Read mode : Secure
Utilize accurate stream : Yes
Defeat audio cache : Yes
Make use of C2 pointers : No
Read offset correction : 48
Overread into Lead-In and Lead-Out : No
Fill up missing offset samples with silence : Yes
Delete leading and trailing silent blocks : No
Null samples used in CRC calculations : Yes
Used interface : Native Win32 interface for Win NT & 2000
Gap handling : Appended to previous track
Used output format : Internal WAV Routines
Sample format : 44.100 Hz; 16 Bit; Stereo
TOC of the extracted CD
Track | Start | Length | Start sector | End sector
---------------------------------------------------------
1 | 0:00.01 | 3:06.57 | 1 | 14007
2 | 3:06.58 | 2:03.18 | 14008 | 23250
3 | 5:10.01 | 2:26.10 | 23251 | 34210
4 | 7:36.11 | 3:48.02 | 34211 | 51312
5 | 11:24.13 | 2:38.59 | 51313 | 63221
6 | 14:02.72 | 2:43.50 | 63222 | 75496
7 | 16:46.47 | 2:53.74 | 75497 | 88545
8 | 19:40.46 | 3:54.61 | 88546 | 106156
9 | 23:35.32 | 2:25.48 | 106157 | 117079
10 | 26:01.05 | 2:46.71 | 117080 | 129600
11 | 28:48.01 | 3:04.16 | 129601 | 143416
12 | 31:52.17 | 2:43.07 | 143417 | 155648
Track 1
Filename O:\0 Torrents\0 Jazz\Walter Wanderley\Walter Wanderley - 1966 Rain Forest\01 - Summer Samba.wav
Pre-gap length 0:00:02.01
Peak level 100.0 %
Track quality 100.0 %
Test CRC C0119708
Copy CRC C0119708
Track not present in AccurateRip database
Copy OK
Track 2
Filename O:\0 Torrents\0 Jazz\Walter Wanderley\Walter Wanderley - 1966 Rain Forest\02 - It's Easy To Say Goodbye.wav
Peak level 99.1 %
Track quality 100.0 %
Test CRC B9880F7D
Copy CRC B9880F7D
Track not present in AccurateRip database
Copy OK
Track 3
Filename O:\0 Torrents\0 Jazz\Walter Wanderley\Walter Wanderley - 1966 Rain Forest\03 - Cried, Cried.wav
Peak level 100.0 %
Track quality 99.9 %
Test CRC 7FCAF76E
Copy CRC 7FCAF76E
Track not present in AccurateRip database
Copy OK
Track 4
Filename O:\0 Torrents\0 Jazz\Walter Wanderley\Walter Wanderley - 1966 Rain Forest\04 - Rain.wav
Peak level 100.0 %
Track quality 100.0 %
Test CRC 85BD16DA
Copy CRC 85BD16DA
Track not present in AccurateRip database
Copy OK
Track 5
Filename O:\0 Torrents\0 Jazz\Walter Wanderley\Walter Wanderley - 1966 Rain Forest\05 - The Girl From Ipanema.wav
Peak level 100.0 %
Track quality 100.0 %
Test CRC A6B52900
Copy CRC A6B52900
Track not present in AccurateRip database
Copy OK
Track 6
Filename O:\0 Torrents\0 Jazz\Walter Wanderley\Walter Wanderley - 1966 Rain Forest\06 - Beloved Melancholy.wav
Peak level 94.2 %
Track quality 100.0 %
Test CRC 6C31F28D
Copy CRC 6C31F28D
Track not present in AccurateRip database
Copy OK
Track 7
Filename O:\0 Torrents\0 Jazz\Walter Wanderley\Walter Wanderley - 1966 Rain Forest\07 - Taste Of Sadness.wav
Peak level 93.8 %
Track quality 99.9 %
Test CRC AB17313A
Copy CRC AB17313A
Track not present in AccurateRip database
Copy OK
Track 8
Filename O:\0 Torrents\0 Jazz\Walter Wanderley\Walter Wanderley - 1966 Rain Forest\08 - Beach Samba.wav
Peak level 100.0 %
Track quality 100.0 %
Test CRC E9E51B35
Copy CRC E9E51B35
Track not present in AccurateRip database
Copy OK
Track 9
Filename O:\0 Torrents\0 Jazz\Walter Wanderley\Walter Wanderley - 1966 Rain Forest\09 - Call Me.wav
Peak level 100.0 %
Track quality 100.0 %
Test CRC 4333C447
Copy CRC 4333C447
Track not present in AccurateRip database
Copy OK
Track 10
Filename O:\0 Torrents\0 Jazz\Walter Wanderley\Walter Wanderley - 1966 Rain Forest\10 - Cry Out Your Sadness.wav
Peak level 100.0 %
Track quality 100.0 %
Test CRC 9B5C97FA
Copy CRC 9B5C97FA
Track not present in AccurateRip database
Copy OK
Track 11
Filename O:\0 Torrents\0 Jazz\Walter Wanderley\Walter Wanderley - 1966 Rain Forest\11 - The Great Love.wav
Pre-gap length 0:00:00.01
Peak level 100.0 %
Track quality 100.0 %
Test CRC F55C6DAD
Copy CRC F55C6DAD
Track not present in AccurateRip database
Copy OK
Track 12
Filename O:\0 Torrents\0 Jazz\Walter Wanderley\Walter Wanderley - 1966 Rain Forest\12 - Song Of The Jet.wav
Peak level 100.0 %
Track quality 100.0 %
Test CRC 7D935EA3
Copy CRC 7D935EA3
Track not present in AccurateRip database
Copy OK
None of the tracks are present in the AccurateRip database
No errors occurred
End of status report
 
audiochecker log
AUDIOCHECKER v2.0 beta (build 457) - by Dester - opdester@freemail.hu
~~~~~~~~~~~~~~~~~~~~~~~~~~~~~~~~~~
-=== DO NOT EDIT THIS FILE! ===-
Path: ...\Walter Wanderley - 1966 Rain Forest
01 -=- 01 - Summer Samba.wav -=- CDDA (100%)
02 -=- 02 - It's Easy To Say Goodbye.wav -=- CDDA (100%)
03 -=- 03 - Cried, Cried.wav -=- CDDA (100%)
04 -=- 04 - Rain.wav -=- CDDA (100%)
05 -=- 05 - The Girl From Ipanema.wav -=- CDDA (100%)
06 -=- 06 - Beloved Melancholy.wav -=- CDDA (100%)
07 -=- 07 - Taste Of Sadness.wav -=- CDDA (99%)
08 -=- 08 - Beach Samba.wav -=- CDDA (100%)
09 -=- 09 - Call Me.wav -=- CDDA (100%)
10 -=- 10 - Cry Out Your Sadness.wav -=- CDDA (100%)
11 -=- 11 - The Great Love.wav -=- CDDA (100%)
12 -=- 12 - Song Of The Jet.wav -=- CDDA (100%)
Summary 99,92% CDDA
17681844
Доп. информация (английский)
http://allmusic.com/cg/amg.dll?p=amg&sql=10:kbftxqy5ldae
Review by Judith Schlesinger
The notes for this CD ask, "What issue is more topical than the Brazilian rain forest? So what reissue would be more topical than Walter Wanderley's Rain Forest?" Politically, this may be true, but musically, this collection is anything but topical. From the first tune — the monster hit "Summer Samba," the listener is catapulted straight back to the '60s when bossa nova was new in the U.S. and everyone wanted a piece of it. Organist Wanderley made a big splash with this CD, which went platinum in two years — and it does evoke strong water images, like "poolside" and "ice skating rink." The jazzmen are underutilized, since most of the tracks are less than three minutes long and leave little room to stretch out. One exception is the pretty Ferreira/Marconi ballad "Rain," the only track where Wanderley plays piano rather than organ and which features a fine solo by Urbie Green on trombone. On "Beach Samba," Green gets to noodle a bit, but Bucky Pizarelli is heard stating the melody and nothing else. Despite all the sadness implied in the song titles, this CD has a jaunty feel to it and will be best enjoyed by nostalgic fans of that bygone era.
Диск от Landy Star Music / PolyGram
02:59
839
Нет комментариев. Ваш будет первым!