Поиск

(Jazz / Bossa-Nova) Charlie Byrd - Jazz'n'Samba - 1995, FLAC (image + .cue), lossless

Charlie Byrd - Jazz'n'Samba
Жанр: Jazz / Bossa-Nova
Год выпуска: 1995
Формат: FLAC (image + .cue)
Битрейт аудио: lossless
Продолжительность: 40:56
Трэклист:
1. Limehouse Blues
2. Take Care Of Yourself
3. Jazz 'N' Samba
4. A Man And A Woman
5. Sweet Georgia Brown
6. Chung King
7. Bluesette
8. When Your Lover Has Gone
9. Someone To Light Up My Life
10. Willow Weep For Me
11. Danza No. 5
12. Carolina In The Morning
13. One Note Samba
14. Things Ain't What/The Cheating
15. Oh Lady Be Good
16. I Don't Mean A Thing (If It Ain't Got That Swing)
Доп. информация: Взято из сети, записано на СД и заново рипнуто, родного лога, к сожалению, не осталось.
 
Отчет ЕАС
Exact Audio Copy V0.99 prebeta 3 from 28. July 2007
Отчёт EAC об извлечении, выполненном 21. апреля 2008, 23:02
Charlie Byrd / Jazz 'n' Samba
Дисковод: TOSHIBA DVD-ROM SD-M1712 Adapter: 0 ID: 3
Режим чтения : Достоверность
Использование точного потока : Да
Отключение кэша аудио : Да
Использование указателей C2 : Нет
Коррекция смещения при чтении : -472
Способность читать области Lead-in и Lead-out : Нет
Заполнение пропущенных сэмплов тишиной : Да
Удаление блоков с тишиной в начале и конце : Нет
При вычислениях CRC использовались нулевые сэмплы : Да
Интерфейс : Установленный внешний ASPI-интерфейс
Выходной формат : Пользовательский кодировщик
Выбранный битрейт : 768 kBit/s
Качество : Высокий
Добавление ID3-тэга : Нет
Утилита сжатия : C:\Program Files\Exact Audio Copy\FLAC\FLAC.EXE
Дополнительные параметры : -6 -V -T "ARTIST=%a" -T "TITLE=%t" -T "ALBUM=%g" -T "DATE=%y" -T "TRACKNUMBER=%n" -T "GENRE=%m" -T "COMMENT=%e" %s -o %d
TOC извлечённого CD
Трек | Старт | Длительность | Начальный сектор | Конечный сектор
---------------------------------------------------------------------
1 | 0:00.00 | 2:19.17 | 0 | 10441
2 | 2:19.17 | 2:43.20 | 10442 | 22686
3 | 5:02.37 | 2:01.10 | 22687 | 31771
4 | 7:03.47 | 2:42.55 | 31772 | 43976
5 | 9:46.27 | 2:21.13 | 43977 | 54564
6 | 12:07.40 | 2:22.72 | 54565 | 65286
7 | 14:30.37 | 3:17.43 | 65287 | 80104
8 | 17:48.05 | 2:09.50 | 80105 | 89829
9 | 19:57.55 | 1:25.07 | 89830 | 96211
10 | 21:22.62 | 2:28.43 | 96212 | 107354
11 | 23:51.30 | 3:44.60 | 107355 | 124214
12 | 27:36.15 | 2:46.05 | 124215 | 136669
13 | 30:22.20 | 2:17.35 | 136670 | 146979
14 | 32:39.55 | 3:06.60 | 146980 | 160989
15 | 35:46.40 | 3:04.60 | 160990 | 174849
16 | 38:51.25 | 2:05.21 | 174850 | 184245
Характеристики диапазона извлечения и сообщения об ошибках
Выбранный диапазон
Имя файла G:\My Docs 2\My Music 2\_From Net\Charlie Byrd - Jazz'n'Samba\Charlie Byrd - Jazz 'n' Samba.wav
Пиковый уровень 91.5 %
Качество диапазона 99.9 %
CRC копии E9EE4F4C
Копирование... OK
Ошибок не произошло
Конец отчёта
 
Tau Analyzer
Уважаемые коллеги! Раздача из-за тарифа осуществляется ночью с 2 до 8 часов по Москве
02:02
362
Нет комментариев. Ваш будет первым!