Поиск

(Jazz / Bossa-Nova) Charlie Byrd - Brazilian Byrd - 1964, FLAC (image + .cue), lossless

(Jazz / Bossa-Nova) Charlie Byrd - Brazilian Byrd - 1964, FLAC (image + .cue), lossless
Charlie Byrd - Brazilian Byrd
Жанр: Jazz / Bossa-Nova
Год выпуска: 1964
Формат: FLAC (image + .cue)
Битрейт аудио: lossless
Продолжительность: 37:03
Трэклист:
1. Jazz 'N' Samba (So Danco Samba) 2:25
2. Corcovado 2:56
3. That Look You Wear (Este Seu Olhar) 2:32
4. The Girl From Ipanema 2:48
5. Samba Do Aviao (Song Of The Jet) 2:25
6. Engano 2:25
7. O Amor Em Paz 3:12
8. Dindi 3:57
9. Cancao Do Amor Demais 2:23
10. As Praias Desertas 4:05
11. Samba Torto 2:18
12. Someone To Light Up My Life (Se Todos Fossem Iguais A Voce) 3:14
13. Engano 2:21
Доп. информация: Альбом, полностью состоящий из композиций Antonio Carlos Jobim-а. Взято из сети, записано на СД и заново рипнуто, родного лога, к сожалению, не осталось.
 
Отчет ЕАС
Exact Audio Copy V0.99 prebeta 3 from 28. July 2007
Отчёт EAC об извлечении, выполненном 21. апреля 2008, 23:35
Charlie Byrd / Brazilian Byrd
Дисковод: TOSHIBA DVD-ROM SD-M1712 Adapter: 0 ID: 3
Режим чтения : Достоверность
Использование точного потока : Да
Отключение кэша аудио : Да
Использование указателей C2 : Нет
Коррекция смещения при чтении : -472
Способность читать области Lead-in и Lead-out : Нет
Заполнение пропущенных сэмплов тишиной : Да
Удаление блоков с тишиной в начале и конце : Нет
При вычислениях CRC использовались нулевые сэмплы : Да
Интерфейс : Установленный внешний ASPI-интерфейс
Выходной формат : Пользовательский кодировщик
Выбранный битрейт : 768 kBit/s
Качество : Высокий
Добавление ID3-тэга : Нет
Утилита сжатия : C:\Program Files\Exact Audio Copy\FLAC\FLAC.EXE
Дополнительные параметры : -6 -V -T "ARTIST=%a" -T "TITLE=%t" -T "ALBUM=%g" -T "DATE=%y" -T "TRACKNUMBER=%n" -T "GENRE=%m" -T "COMMENT=%e" %s -o %d
TOC извлечённого CD
Трек | Старт | Длительность | Начальный сектор | Конечный сектор
---------------------------------------------------------------------
1 | 0:00.00 | 2:23.15 | 0 | 10739
2 | 2:23.15 | 2:56.18 | 10740 | 23957
3 | 5:19.33 | 2:32.50 | 23958 | 35407
4 | 7:52.08 | 2:48.12 | 35408 | 48019
5 | 10:40.20 | 2:25.45 | 48020 | 58939
6 | 13:05.65 | 2:25.38 | 58940 | 69852
7 | 15:31.28 | 3:12.60 | 69853 | 84312
8 | 18:44.13 | 3:57.17 | 84313 | 102104
9 | 22:41.30 | 2:23.30 | 102105 | 112859
10 | 25:04.60 | 4:05.35 | 112860 | 131269
11 | 29:10.20 | 2:18.18 | 131270 | 141637
12 | 31:28.38 | 3:14.25 | 141638 | 156212
13 | 34:42.63 | 2:20.40 | 156213 | 166752
Характеристики диапазона извлечения и сообщения об ошибках
Выбранный диапазон
Имя файла G:\My Docs 2\My Music 2\_From Net\Charlie Byrd - Brazilian Byrd\Charlie Byrd - Brazilian Byrd.wav
Пиковый уровень 95.5 %
Качество диапазона 99.9 %
CRC копии 9C621D13
Копирование... OK
Ошибок не произошло
Конец отчёта
 
Tau Analyzer
Уважаемые коллеги! Раздача из-за тарифа осуществляется ночью с 2 до 8 часов по Москве
02:01
353
Нет комментариев. Ваш будет первым!