Поиск

(Jazz Bossa Nova) Antonio Carlos Jobim - The Composer of Desafinado, Plays 1963 - 1997, FLAC (image+.cue), lossless

(Jazz Bossa Nova) Antonio Carlos Jobim - The Composer of Desafinado, Plays 1963 - 1997, FLAC (image+.cue), lossless
Треклист:
Antonio Carlos Jobim - The Composer of Desafinado, Plays 1963
Жанр: Jazz Bossa Nova
Год выпуска диска: 1997
Производитель диска: Verve
Аудио кодек: FLAC
Тип рипа: image+.cue
Битрейт аудио: lossless
Продолжительность: 35:10
Трэклист:
1. The Girl from Ipanema - Antonio Carlos Jobim, DeMoraes, Vinicius
2. Amor Em Paz (Once I Loved)
3. Agua de Beber - Antonio Carlos Jobim, DeMoraes, Vinicius
4. Vivo Sonhando
5. O Morro Nao Tem Vez
6. Insensatez
7. Corcovado
8. One Note Samba - Antonio Carlos Jobim, Hendricks, Jon
9. Meditation - Antonio Carlos Jobim, Gimbel, Norman
10. So Danco Samba
11. Chega de Saudade
12. Desafinado
На мой взгляд, лучший альбом великолепного композитора
 
Отчёт EAC
Exact Audio Copy V0.99 prebeta 4 from 23. January 2008
Отчёт EAC об извлечении, выполненном 22. октября 2008, 19:45
Antonio Carlos Jobim / The Composer of Desafinado, Plays
Дисковод: PIONEER DVD-RW DVR-115D Adapter: 0 ID: 0
Режим чтения : Достоверность
Использование точного потока : Да
Отключение кэша аудио : Да
Использование указателей C2 : Нет
Коррекция смещения при чтении : 48
Способность читать области Lead-in и Lead-out : Нет
Заполнение пропущенных сэмплов тишиной : Да
Удаление блоков с тишиной в начале и конце : Нет
При вычислениях CRC использовались нулевые сэмплы : Нет
Интерфейс : Встроенный Win32-интерфейс для Win NT/2000
Выходной формат : Пользовательский кодировщик
Выбранный битрейт : 768 kBit/s
Качество : Высокий
Добавление ID3-тэга : Нет
Утилита сжатия : C:\Program Files\Exact Audio Copy\FLAC\FLAC.EXE
Дополнительные параметры : -6 -V -T "ARTIST=%a" -T "TITLE=%t" -T "ALBUM=%g" -T "DATE=%y" -T "TRACKNUMBER=%n" -T "GENRE=%m" -T "COMMENT=%e" %s -o %d
TOC извлечённого CD
Трек | Старт | Длительность | Начальный сектор | Конечный сектор
---------------------------------------------------------------------
1 | 0:00.32 | 2:42.08 | 32 | 12189
2 | 2:42.40 | 3:36.17 | 12190 | 28406
3 | 6:18.57 | 2:50.25 | 28407 | 41181
4 | 9:09.07 | 2:35.50 | 41182 | 52856
5 | 11:44.57 | 3:21.00 | 52857 | 67931
6 | 15:05.57 | 2:53.08 | 67932 | 80914
7 | 17:58.65 | 2:25.67 | 80915 | 91856
8 | 20:24.57 | 2:14.43 | 91857 | 101949
9 | 22:39.25 | 3:15.02 | 101950 | 116576
10 | 25:54.27 | 2:21.68 | 116577 | 127219
11 | 28:16.20 | 4:19.50 | 127220 | 146694
12 | 32:35.70 | 2:44.25 | 146695 | 159019
Характеристики диапазона извлечения и сообщения об ошибках
Выбранный диапазон
Имя файла C:\Documents and Settings\Peter\Desktop\Antonio Carlos Jobim 1963\Antonio Carlos Jobim - The Composer of Desafinado, Plays.wav
Пиковый уровень 100.0 %
Качество диапазона 99.9 %
CRC копии 3D3891EB
Копирование... OK
Ошибок не произошло
AccurateRip: сводка
Трек 1 нет в базе данных
Трек 2 нет в базе данных
Трек 3 нет в базе данных
Трек 4 нет в базе данных
Трек 5 нет в базе данных
Трек 6 нет в базе данных
Трек 7 нет в базе данных
Трек 8 нет в базе данных
Трек 9 нет в базе данных
Трек 10 нет в базе данных
Трек 11 нет в базе данных
Трек 12 нет в базе данных
Ни одного трека нет в базе AccurateRip
Конец отчёта
04:04
409
Нет комментариев. Ваш будет первым!