Поиск

(Jazz Bossa Nova) Antonio Carlos Jobim - 1973 - Jobim, FLAC (image+.cue), lossless

(Jazz Bossa Nova) Antonio Carlos Jobim - 1973 - Jobim, FLAC (image+.cue), lossless
Треклист:
Antonio Carlos Jobim - 1973 - Jobim
Жанр: Jazz Bossa Nova
Год выпуска диска: 1973
Производитель диска: Verve
Аудио кодек: FLAC
Тип рипа: image+.cue
Битрейт аудио: lossless
Продолжительность: 46:23
Трэклист:
Артист: Antonio Carlos Jobim
Альбом: Jobim
==========================================
01 - Antonio Carlos Jobim - Aguas De Marco
02 - Antonio Carlos Jobim - Ana Luiza
03 - Antonio Carlos Jobim - Matita Perк
04 - Antonio Carlos Jobim - Tempo Do Mar
05 - Antonio Carlos Jobim - Mantiqueira Range
06 - Antonio Carlos Jobim - Themes From The Film Cronica Da Casa Assassinada Trem Para Crodisburgo
07 - Antonio Carlos Jobim - Um Rancho Nas Nuvens
08 - Antonio Carlos Jobim - Nuvens Douradas
09 - Antonio Carlos Jobim - Waters Of March (Aguas De Marco)
 
Отчёт EAC
Exact Audio Copy V0.99 prebeta 4 from 23. January 2008
Отчёт EAC об извлечении, выполненном 22. октября 2008, 19:32
Antonio Carlos Jobim / Jobim
Дисковод: PIONEER DVD-RW DVR-115D Adapter: 0 ID: 0
Режим чтения : Достоверность
Использование точного потока : Да
Отключение кэша аудио : Да
Использование указателей C2 : Нет
Коррекция смещения при чтении : 48
Способность читать области Lead-in и Lead-out : Нет
Заполнение пропущенных сэмплов тишиной : Да
Удаление блоков с тишиной в начале и конце : Нет
При вычислениях CRC использовались нулевые сэмплы : Нет
Интерфейс : Встроенный Win32-интерфейс для Win NT/2000
Выходной формат : Пользовательский кодировщик
Выбранный битрейт : 768 kBit/s
Качество : Высокий
Добавление ID3-тэга : Нет
Утилита сжатия : C:\Program Files\Exact Audio Copy\FLAC\FLAC.EXE
Дополнительные параметры : -6 -V -T "ARTIST=%a" -T "TITLE=%t" -T "ALBUM=%g" -T "DATE=%y" -T "TRACKNUMBER=%n" -T "GENRE=%m" -T "COMMENT=%e" %s -o %d
TOC извлечённого CD
Трек | Старт | Длительность | Начальный сектор | Конечный сектор
---------------------------------------------------------------------
1 | 0:00.00 | 3:58.32 | 0 | 17881
2 | 3:58.32 | 5:28.28 | 17882 | 42509
3 | 9:26.60 | 7:12.67 | 42510 | 74976
4 | 16:39.52 | 5:14.10 | 74977 | 98536
5 | 21:53.62 | 3:33.65 | 98537 | 114576
6 | 25:27.52 | 10:01.40 | 114577 | 159691
7 | 35:29.17 | 4:05.73 | 159692 | 178139
8 | 39:35.15 | 3:18.70 | 178140 | 193059
9 | 42:54.10 | 3:55.70 | 193060 | 210754
Характеристики диапазона извлечения и сообщения об ошибках
Выбранный диапазон
Имя файла C:\Documents and Settings\Peter\Desktop\Antonio Carlos Jobim 1973\Antonio Carlos Jobim - 1973 - Jobim.wav
Пиковый уровень 100.0 %
Качество диапазона 100.0 %
CRC теста 3710C722
CRC копии 3710C722
Копирование... OK
Ошибок не произошло
AccurateRip: сводка
Трек 1 точное извлечение (доверие 1) [D908E2A0]
Трек 2 точное извлечение (доверие 1) [B99FFB25]
Трек 3 точное извлечение (доверие 1) [4D91EF19]
Трек 4 точное извлечение (доверие 1) [78E93B35]
Трек 5 точное извлечение (доверие 1) [92B7505E]
Трек 6 точное извлечение (доверие 1) [27898FC8]
Трек 7 точное извлечение (доверие 1) [6B2851B8]
Трек 8 точное извлечение (доверие 1) [DE6BFED3]
Трек 9 точное извлечение (доверие 1) [50B393A3]
Все треки извлечены точно
Конец отчёта
04:05
520
Нет комментариев. Ваш будет первым!