Поиск

(jazz, blues, latin) Kenny Burrell - Soulero (rec.1966-1967) - 1995, FLAC (tracks+.cue), lossless

(jazz, blues, latin) Kenny Burrell - Soulero (rec.1966-1967) - 1995, FLAC (tracks+.cue), lossless
Треклист:
Kenny Burrell - Soulero (rec.1966-1967)
Жанр: jazz, blues, latin
Год выпуска диска: 1995
Производитель диска: EC
Аудио кодек: FLAC
Тип рипа: tracks+.cue
Битрейт аудио: lossless
Продолжительность: 61:04
Трэклист:
1. Hot Bossa
2. Mother-in-Law
3. People
4. Isabella
5. Girl Talk
6. Suzy
7. The Tender Gender
8. La Petite Mambo
9. If Someone Had Told Me
10. I'm Confessin' (That I Love You)
11. My Favorite Things
12. I Want My Baby Back
13. Con Alma
14. Soulero
15. Wild Is The Wind
16. Blues Fuse
Доп. информация: Период работы с Chess Records (лейбл Cadet)
№1-10 rec. 1966 (LP "The Tender Gender") - альбом целиком
№11 rec. 1966 (LP ''Have Yourself a Soulful Little Christmas''
№12-16 rec. 1967 (LP ''Ode to 52nd Street'')
 
log EAC
EAC extraction logfile from 2. September 2009, 12:23 for CD
Kenny Burrell / Soulero
Used drive : HL-DT-STDVDRAM GSA-4163B Adapter: 0 ID: 0
Read mode : Secure with NO C2, accurate stream, disable cache
Read offset correction : 667
Overread into Lead-In and Lead-Out : No
Used output format : C:\Program Files\FLAC\flac.exe (User Defined Encoder)
320 kBit/s
Additional command line options : -8 -V -T "ARTIST=%a" -T "TITLE=%t" -T "ALBUM=%g" -T "DATE=%y" -T "TRACKNUMBER=%n" -T "GENRE=%m" -T "COMMENT=EAC FLAC -8" %s
Other options :
Fill up missing offset samples with silence : Yes
Delete leading and trailing silent blocks : No
Native Win32 interface for Win NT & 2000
Track 1
Filename F:\Kenny Burrell - Soulero\01 - Hot Bossa.wav
Pre-gap length 0:00:02.42
Peak level 100.0 %
Track quality 100.0 %
Test CRC 90A36747
Copy CRC 90A36747
Copy OK
Track 2
Filename F:\Kenny Burrell - Soulero\02 - Mother-in-Law.wav
Pre-gap length 0:00:03.40
Peak level 93.7 %
Track quality 100.0 %
Test CRC D7080429
Copy CRC D7080429
Copy OK
Track 3
Filename F:\Kenny Burrell - Soulero\03 - People.wav
Pre-gap length 0:00:03.36
Peak level 88.9 %
Track quality 100.0 %
Test CRC FD37628C
Copy CRC FD37628C
Copy OK
Track 4
Filename F:\Kenny Burrell - Soulero\04 - Isabella.wav
Pre-gap length 0:00:03.93
Peak level 100.0 %
Track quality 100.0 %
Test CRC 3066D9EC
Copy CRC 3066D9EC
Copy OK
Track 5
Filename F:\Kenny Burrell - Soulero\05 - Girl Talk.wav
Pre-gap length 0:00:03.46
Peak level 99.0 %
Track quality 100.0 %
Test CRC 5A6A0D99
Copy CRC 5A6A0D99
Copy OK
Track 6
Filename F:\Kenny Burrell - Soulero\06 - Suzy.wav
Pre-gap length 0:00:03.49
Peak level 99.9 %
Track quality 100.0 %
Test CRC 104CA0E2
Copy CRC 104CA0E2
Copy OK
Track 7
Filename F:\Kenny Burrell - Soulero\07 - The Tender Gender.wav
Pre-gap length 0:00:02.53
Peak level 86.7 %
Track quality 100.0 %
Test CRC 3B16150E
Copy CRC 3B16150E
Copy OK
Track 8
Filename F:\Kenny Burrell - Soulero\08 - La Petite Mambo.wav
Pre-gap length 0:00:03.62
Peak level 86.2 %
Track quality 99.9 %
Test CRC EC1D70DF
Copy CRC EC1D70DF
Copy OK
Track 9
Filename F:\Kenny Burrell - Soulero\09 - If Someone Had Told Me.wav
Pre-gap length 0:00:02.80
Peak level 92.2 %
Track quality 100.0 %
Test CRC 69DABCF9
Copy CRC 69DABCF9
Copy OK
Track 10
Filename F:\Kenny Burrell - Soulero\10 - I'm Confessin' (That I Love You).wav
Pre-gap length 0:00:04.37
Peak level 92.4 %
Track quality 100.0 %
Test CRC 445A56FC
Copy CRC 445A56FC
Copy OK
Track 11
Filename F:\Kenny Burrell - Soulero\11 - My Favorite Things.wav
Pre-gap length 0:00:03.60
Peak level 90.8 %
Track quality 100.0 %
Test CRC 56872533
Copy CRC 56872533
Copy OK
Track 12
Filename F:\Kenny Burrell - Soulero\12 - I Want My Baby Back.wav
Pre-gap length 0:00:02.40
Peak level 84.9 %
Track quality 99.9 %
Test CRC 04AA044F
Copy CRC 04AA044F
Copy OK
Track 13
Filename F:\Kenny Burrell - Soulero\13 - Con Alma.wav
Pre-gap length 0:00:03.46
Peak level 72.8 %
Track quality 100.0 %
Test CRC 7B2B77A9
Copy CRC 7B2B77A9
Copy OK
Track 14
Filename F:\Kenny Burrell - Soulero\14 - Soulero.wav
Pre-gap length 0:00:03.06
Peak level 99.9 %
Track quality 100.0 %
Test CRC 01DFF2AE
Copy CRC 01DFF2AE
Copy OK
Track 15
Filename F:\Kenny Burrell - Soulero\15 - Wild is the Wind.wav
Pre-gap length 0:00:03.56
Peak level 60.1 %
Track quality 99.9 %
Test CRC 615D5619
Copy CRC 615D5619
Copy OK
Track 16
Filename F:\Kenny Burrell - Soulero\16 - Blues Fuse.wav
Pre-gap length 0:00:03.70
Peak level 91.7 %
Track quality 100.0 %
Test CRC 35A138F3
Copy CRC 35A138F3
Copy OK
No errors occured
End of status report
По всем вопросам пишите личное сообщение пользователю M0p94ok.
07:33
242
Нет комментариев. Ваш будет первым!