Поиск

(Fusion, Ethnic jazz) Shem-Tov Levy - 3 albums (1995, 2000, 2001), FLAC (tracks+.cue), lossless

Треклист:
Shem-Tov Levy - 3 albums (1995, 2000, 2001)
Эта же раздача в mp3, 320 kbps
Rock - Made In Israel (Каталог раздач)
Jazz - Made In Israel (Каталог раздач) Очень трудно категоризировать этого певца (исполнителя только своих песен), флейтиста, пианиста и композитора, стоявшего когда - то у истоков израильского прогрессива и фьюжн. Он и сегодня не останавливается, и сегодня так же трудно определить, в какой жанр приткнуть его альбомы, настолько они оригинальны. Единственное, что повторяется от альбома к альбому и от года к году - необычайная мелодичность и талант композитора и арранжировщика
 
из интервью, взятого Ури Брайтманом (2006)
Он рос с классической музыкой, но оставил академию из за войны Судного дня. учавствовал в Ktzat Acheret с Гронихом и Юдовым, выпустил сольный прогрессивный альбом Мацав а руах (In the Mood). Собрал Шешет, учавствовал во взлете Арика Эйнштейна, флейтист (с заметным влиянием Яна Андерсона), композитор (с заметным влиянием Джентл Джайнт), арранжировщик и продюсер, получал призы Израильской академии исскуств. Один из самых влиятельных композиторов Израиля, пишущий во многих стилях, сочетая этническую музыку, классику, рок и восточно-европейский фолк. Родился в семье выходцев из Болгарии в 1950, в Реховоте, и когда в Лондоне родился прогрессив, ему было 20. С рождения слышал и слушал классику, формальное образование усилило влияние классики и дало ему основу для последующего творчества.
"Я оставил Тель Авивскую академию музыки после 2 лет обучения, в это же время (1973) разразилась война Судного дня. Был в ополчении полгода и псле войны не вернулся в академию, взял курс джазовой композици в колледже Беркли, в Бостоне. Еще до академии учился у людей частным образом, еще со школьных лет учился у композитора Гьоры Шустера, после него у доктора Цви Керена учился композиции и джазу. Учился играть на флейте еще с 13 лет, позже начал играть в филармоническом оркестре. Много играл, много слышал - и много учился. После этого занимался мнгогими вещами, неприемлимыми для классического музыканта, не совсем в соответствии с канонами Баха и тем, чему меня учили в академии"
Шломо Гроних познакомил его с прогрессивом
"И первые вещи, что Гроних делал, сильно влияли на окружающих музыкантов, и конечно, на меня. С тех пор между нами есть контакт, который длится многие годы. В последние годы Шломо делает нечто иное, но в то время, в 70-ые, все эти группы делали действительно новое, и я это слышал..."
В другом интервью, данном Талю Гордону - он сказал
Я не думал или не решал делать прогрессив, но естественным образом пришел к нему от определенных источников классической музыки и джаза. Это то, что меня трогало, интересовало меня, и звучало во мне естественным образом, когда садился что то писать - не говорил себе, сейчас я буду писать как Джентл Джайнт, И сегодня это также, но все мы подвержены влиянию того, с чем росли...
Жанр: Fusion, Ethnic jazz
Страна исполнителя: Israel
Аудио кодек: FLAC
Тип рипа: (tracks + .cue)
Битрейт аудио: lossless
Включает: Full artwork
Источник: Моя коллекция
Риппер: Мой рип
 
Path To The Soul (1995)
Жанр: fusion
Дата записи: Nov 1994
Дата выпуска: 1995
Производитель диска, страна: Hed Artzi
Продолжительность: 46:30
Это инструментальный фьюжн, однако очень поэтичный и мелодический
Шем-Тов Леви - один из создателей прогрессива в Израиле, но он всегда был и есть композитором, не соблюдающим никаких стилистических рамок
Трэклист:
01 - In Your Village
02 - Colors
03 - The Hobbits' Dance
04 - Diving Of The Pelican
05 - Samba Chick
06 - Menuet by Bach
07 - D Minor Blues
08 - Shemi's Tune
09 - Seven Eighths
All titles composed by Shem Tov Levy
Состав:
Alon Halal - drums
Alon Nadel - bass
Amos Hadani - guitar
Edy Ranrat - keyboards
Gadi Sari - percussion
Shem Tov Levy - flute
Tamar Giladi, Shirli Zafry - voices
Shem-Tov Levy пишет на буклете
Цитата:
Вещи, записанные на этом диске - самые любимые из всех инструментальных пьес, что я написал
Они были написаны в разные периоды моей жизни, в разных состояниях, и в них можно слышать влияния того, что я слушал и любил на протяжении всех этих лет. Ритмические влияния балканской музыки, что я слышал дома - размеры 7/8 или 5/8, этно-музыка, джаз-рок и классика - Все это смешалось во мне на протяжении длительного времени и стало фундаментом для моей музыки
Я всегда был музыкантом - тем, кто, играя на своем инструменте, создает мелодии и созвучия в рамках звучащей пьесы
Меня всегда затягивает этот наигрыш и увлекает в другие миры - и музыкальные, и эмоциональные. Пьесы, которые я выбрал, также особенно подходят музыкантам, учавствующим в этих записях - все они из нашей элиты, чудесные музыканты, восхищающие своей игрой. Музыка уносит меня, композитора и музыканта, из повседневной действительности в мир, более совершенный и гармоничный
Я надеюсь, что это случится и с вами
 
EAC log
EAC extraction logfile from 4. June 2008, 10:05 for CD
Shem Tov Levi / Path To The Soul
Used drive : PIONEER DVD-RW DVR-112D Adapter: 0 ID: 0
Read mode : Secure with NO C2, accurate stream, disable cache
Read offset correction : 48
Overread into Lead-In and Lead-Out : No
Used output format : C:\Program Files\FLAC\flac.exe (User Defined Encoder)
320 kBit/s
Additional command line options : -8 -V -T "ARTIST=%a" -T "TITLE=%t" -T "ALBUM=%g" -T "DATE=%y" -T "TRACKNUMBER=%n" -T "GENRE=%m" -T "COMMENT=EAC FLAC -8" %s
Other options :
Fill up missing offset samples with silence : Yes
Delete leading and trailing silent blocks : No
Installed external ASPI interface
Track 1
Filename D:\music\rip\Shem Tov Levi - Path To The Soul (1995) [FLAC]\01 - In Your Village.wav
Pre-gap length 0:00:02.00
Peak level 86.6 %
Track quality 100.0 %
Test CRC E4EF9A00
Copy CRC E4EF9A00
Copy OK
Track 2
Filename D:\music\rip\Shem Tov Levi - Path To The Soul (1995) [FLAC]\02 - Colors.wav
Pre-gap length 0:00:02.56
Peak level 88.6 %
Track quality 100.0 %
Test CRC E2B400EA
Copy CRC E2B400EA
Copy OK
Track 3
Filename D:\music\rip\Shem Tov Levi - Path To The Soul (1995) [FLAC]\03 - The Hobbits' Dance.wav
Peak level 97.7 %
Track quality 100.0 %
Test CRC DC17EB8E
Copy CRC DC17EB8E
Copy OK
Track 4
Filename D:\music\rip\Shem Tov Levi - Path To The Soul (1995) [FLAC]\04 - Diving Of The Pelican.wav
Pre-gap length 0:00:01.44
Peak level 100.0 %
Track quality 99.9 %
Test CRC 27692E9A
Copy CRC 27692E9A
Copy OK
Track 5
Filename D:\music\rip\Shem Tov Levi - Path To The Soul (1995) [FLAC]\05 - Samba Chick.wav
Pre-gap length 0:00:01.84
Peak level 100.0 %
Track quality 100.0 %
Test CRC 178A5CE1
Copy CRC 178A5CE1
Copy OK
Track 6
Filename D:\music\rip\Shem Tov Levi - Path To The Soul (1995) [FLAC]\06 - Menuet by Bach.wav
Pre-gap length 0:00:03.16
Peak level 80.1 %
Track quality 100.0 %
Test CRC 9502DF83
Copy CRC 9502DF83
Copy OK
Track 7
Filename D:\music\rip\Shem Tov Levi - Path To The Soul (1995) [FLAC]\07 - D Minor Blues.wav
Pre-gap length 0:00:03.64
Peak level 97.3 %
Track quality 100.0 %
Test CRC 8A612201
Copy CRC 8A612201
Copy OK
Track 8
Filename D:\music\rip\Shem Tov Levi - Path To The Soul (1995) [FLAC]\08 - Shemi's Tune.wav
Pre-gap length 0:00:02.30
Peak level 98.9 %
Track quality 99.9 %
Test CRC 0A899494
Copy CRC 0A899494
Copy OK
Track 9
Filename D:\music\rip\Shem Tov Levi - Path To The Soul (1995) [FLAC]\09 - Seven Eighths.wav
Pre-gap length 0:00:01.70
Peak level 98.3 %
Track quality 100.0 %
Test CRC 23AD9BE8
Copy CRC 23AD9BE8
Copy OK
No errors occured
End of status report
 
AucDect log
753956702 60509948 01 - In Your Village.wav
1322145512 62692604 02 - Colors.wav
2142873804 53809100 03 - The Hobbits' Dance.wav
987441464 43053404 04 - Diving Of The Pelican.wav
3902823839 62991308 05 - Samba Chick.wav
468729280 20763500 06 - Menuet by Bach.wav
2760582339 48357164 07 - D Minor Blues.wav
200488520 81532124 08 - Shemi's Tune.wav
2951252402 58546028 09 - Seven Eighths.wav
auCDtect: CD records authenticity detector, version 0.8.2
Copyright (c) 2004 Oleg Berngardt. All rights reserved.
Copyright (c) 2004 Alexander Djourik. All rights reserved.
------------------------------------------------------------
Processing file: [01 - In Your Village.wav]
------------------------------------------------------------
This track looks like CDDA with probability 100%
------------------------------------------------------------
Processing file: [02 - Colors.wav]
------------------------------------------------------------
This track looks like CDDA with probability 99%
------------------------------------------------------------
Processing file: [03 - The Hobbits' Dance.wav]
------------------------------------------------------------
This track looks like CDDA with probability 100%
------------------------------------------------------------
Processing file: [04 - Diving Of The Pelican.wav]
------------------------------------------------------------
This track looks like CDDA with probability 100%
------------------------------------------------------------
Processing file: [05 - Samba Chick.wav]
------------------------------------------------------------
This track looks like CDDA with probability 100%
------------------------------------------------------------
Processing file: [06 - Menuet by Bach.wav]
------------------------------------------------------------
This track looks like CDDA with probability 54%
------------------------------------------------------------
Processing file: [07 - D Minor Blues.wav]
------------------------------------------------------------
This track looks like CDDA with probability 100%
------------------------------------------------------------
Processing file: [08 - Shemi's Tune.wav]
------------------------------------------------------------
This track looks like CDDA with probability 100%
------------------------------------------------------------
Processing file: [09 - Seven Eighths.wav]
------------------------------------------------------------
This track looks like CDDA with probability 100%
------------------------------------------------------------
Final Conclusion:
------------------------------------------------------------
These tracks looks like CDDA with probability 100%
 
Stations (2000)
Жанр: Ethnic jazz
Дата записи: 2000
Дата выпуска: 2000
Производитель диска, страна: a-Tav a-Smini (8th Note)
Продолжительность: 47:20
Обработки этнической - израильской и не только музыки, исполняемой на соответствующих аутентичных инструментах джазовыми музыкантами
Трэклист:
01 - Celebration (Shem-Tov Levy)
02 - Delicate Hand (Israeli folk)
03 - Be Fruitful and Multiply (Shem-Tov Levy)
04 - Nuages - (Django Reinhardt)
05 - The Hometown (Shem-Tov Levy, Konstantidos Kawafis, hebrew: Eli Mohar)
06 - Hawat Habibi (Abdul Wahab)
07 - Golden Peacock (Shem-Tov Levy)
08 - Batituska (Bulgarian folk)
09 - Ederlezi (Goran Bregowic)
10 - Chorale - J.S. Bach (from Cantata bwv 140)
11 - Similar is Possible (Shem-Tov Levy, Micha Shitrit)
Arrangemens - all ansamble members
Producing - Shem-Tov Levy
Состав:
Gady Ben-Elisha - guitars & vocal
Tzur Ben-Zeev - COntrabass & vocal
Gershon Waiserfird - ud, jumbush, bariton & vocal
Noam Hen - percussion & vocal
Shirli Sabah - ud & vocal
Shem-Tov Levy - flute, piano & vocal
 
EAC log
EAC extraction logfile from 4. June 2008, 9:47 for CD
Shem Tov Levy / Stations
Used drive : PIONEER DVD-RW DVR-112D Adapter: 0 ID: 0
Read mode : Secure with NO C2, accurate stream, disable cache
Read offset correction : 48
Overread into Lead-In and Lead-Out : No
Used output format : C:\Program Files\FLAC\flac.exe (User Defined Encoder)
320 kBit/s
Additional command line options : -8 -V -T "ARTIST=%a" -T "TITLE=%t" -T "ALBUM=%g" -T "DATE=%y" -T "TRACKNUMBER=%n" -T "GENRE=%m" -T "COMMENT=EAC FLAC -8" %s
Other options :
Fill up missing offset samples with silence : Yes
Delete leading and trailing silent blocks : No
Installed external ASPI interface
Track 1
Filename D:\music\rip\Shem Tov Levy - Stations (2000) [FLAC]\01 - Celebration.wav
Pre-gap length 0:00:02.00
Peak level 100.0 %
Track quality 99.9 %
Test CRC 9A0CEB60
Copy CRC 9A0CEB60
Copy OK
Track 2
Filename D:\music\rip\Shem Tov Levy - Stations (2000) [FLAC]\02 - Delicate Hand.wav
Pre-gap length 0:00:02.00
Peak level 100.0 %
Track quality 99.9 %
Test CRC C420234F
Copy CRC C420234F
Copy OK
Track 3
Filename D:\music\rip\Shem Tov Levy - Stations (2000) [FLAC]\03 - Be Fruitful and Multiply.wav
Pre-gap length 0:00:00.50
Peak level 100.0 %
Track quality 100.0 %
Test CRC 677D1BB7
Copy CRC 677D1BB7
Copy OK
Track 4
Filename D:\music\rip\Shem Tov Levy - Stations (2000) [FLAC]\04 - Nuages.wav
Pre-gap length 0:00:02.00
Peak level 100.0 %
Track quality 100.0 %
Test CRC 2194CE24
Copy CRC 2194CE24
Copy OK
Track 5
Filename D:\music\rip\Shem Tov Levy - Stations (2000) [FLAC]\05 - The Hometown.wav
Pre-gap length 0:00:02.00
Peak level 100.0 %
Track quality 100.0 %
Test CRC 960CB5C4
Copy CRC 960CB5C4
Copy OK
Track 6
Filename D:\music\rip\Shem Tov Levy - Stations (2000) [FLAC]\06 - Hawat Habibi.wav
Pre-gap length 0:00:01.00
Peak level 100.0 %
Track quality 100.0 %
Test CRC BF87034C
Copy CRC BF87034C
Copy OK
Track 7
Filename D:\music\rip\Shem Tov Levy - Stations (2000) [FLAC]\07 - Golden Peacock.wav
Pre-gap length 0:00:01.50
Peak level 100.0 %
Track quality 99.9 %
Test CRC 101A61E9
Copy CRC 101A61E9
Copy OK
Track 8
Filename D:\music\rip\Shem Tov Levy - Stations (2000) [FLAC]\08 - Batituska.wav
Pre-gap length 0:00:00.50
Peak level 100.0 %
Track quality 100.0 %
Test CRC C779BF6E
Copy CRC C779BF6E
Copy OK
Track 9
Filename D:\music\rip\Shem Tov Levy - Stations (2000) [FLAC]\09 - Ederlezi.wav
Pre-gap length 0:00:02.00
Peak level 100.0 %
Track quality 99.9 %
Test CRC 158067AD
Copy CRC 158067AD
Copy OK
Track 10
Filename D:\music\rip\Shem Tov Levy - Stations (2000) [FLAC]\10 - Chorale - J.S. Bach (from Cantata bwv 140).wav
Pre-gap length 0:00:02.00
Peak level 100.0 %
Track quality 100.0 %
Test CRC BFE92581
Copy CRC BFE92581
Copy OK
Track 11
Filename D:\music\rip\Shem Tov Levy - Stations (2000) [FLAC]\11 - Similar is Possible.wav
Pre-gap length 0:00:02.00
Peak level 100.0 %
Track quality 100.0 %
Test CRC 4CC835CA
Copy CRC 4CC835CA
Copy OK
No errors occured
End of status report
 
AucDect log
1376531958 48787580 01 - Celebration.wav
3349309658 66709820 02 - Delicate Hand.wav
1133602682 22014764 03 - Be Fruitful and Multiply.wav
2827521071 67782332 04 - Nuages.wav
638452655 43272140 05 - The Hometown.wav
3791106341 69889724 06 - Hawat Habibi.wav
2638818417 40061660 07 - Golden Peacock.wav
773495885 35856284 08 - Batituska.wav
1851190295 49782476 09 - Ederlezi.wav
1743041005 35637548 10 - Chorale - J.S. Bach (from Cantata bwv 140).wav
2914776614 21306812 11 - Similar is Possible.wav
auCDtect: CD records authenticity detector, version 0.8.2
Copyright (c) 2004 Oleg Berngardt. All rights reserved.
Copyright (c) 2004 Alexander Djourik. All rights reserved.
------------------------------------------------------------
Processing file: [01 - Celebration.wav]
------------------------------------------------------------
This track looks like CDDA with probability 100%
------------------------------------------------------------
Processing file: [02 - Delicate Hand.wav]
------------------------------------------------------------
This track looks like CDDA with probability 100%
------------------------------------------------------------
Processing file: [03 - Be Fruitful and Multiply.wav]
------------------------------------------------------------
This track looks like CDDA with probability 100%
------------------------------------------------------------
Processing file: [04 - Nuages.wav]
------------------------------------------------------------
This track looks like CDDA with probability 100%
------------------------------------------------------------
Processing file: [05 - The Hometown.wav]
------------------------------------------------------------
This track looks like CDDA with probability 99%
------------------------------------------------------------
Processing file: [06 - Hawat Habibi.wav]
------------------------------------------------------------
This track looks like CDDA with probability 100%
------------------------------------------------------------
Processing file: [07 - Golden Peacock.wav]
------------------------------------------------------------
This track looks like CDDA with probability 100%
------------------------------------------------------------
Processing file: [08 - Batituska.wav]
------------------------------------------------------------
This track looks like CDDA with probability 100%
------------------------------------------------------------
Processing file: [09 - Ederlezi.wav]
------------------------------------------------------------
This track looks like CDDA with probability 100%
------------------------------------------------------------
Processing file: [10 - Chorale - J.S. Bach (from Cantata bwv 140).wav]
------------------------------------------------------------
This track looks like CDDA with probability 100%
------------------------------------------------------------
Processing file: [11 - Similar is Possible.wav]
------------------------------------------------------------
This track looks like CDDA with probability 100%
------------------------------------------------------------
Final Conclusion:
------------------------------------------------------------
These tracks looks like CDDA with probability 100%
 
Circle of Dreams (2001)
Жанр: Ethnic fusion
Дата выпуска: 2001
Производитель диска, страна: Magda/Shem Тоv Levy MGD033
Продолжительность: 41:06
Для Шем Тов Леви его работа над музыкой для кинофильма для Desperados Square, за который он был награжден израильским Оскаром в 2000, была толчком, который вернул его к детству. Deni Torati, директор фильма, завалил Леви компакт-дисками персидской, турецкой и арабской музыки, несшей его к улицам его детства, к балканским корням его дома, к кварталу Yemenite She'arim - в плавильный котел мест, атмосферы, людей и музыки, которые составляли богатое культурное и этническое окружение, в котором он рос. Эти звуки были отправной точкой для этого альбома, его первого альбома, составленного полностью из этнической музыки и его первой попытки полного погружения в старо-новый мир музыки, в котором у него раньше не было почти никакого опыта.
Круг Мечтаний - фактически путешествие в путешествии. Первая путешествие - сквозь время к музыкальным корням, от которых и в которых он рос. Во второе путешествие нас увлекает сама музыка. В музыкальном туре в в этом альбоме Леви использует свои навыки и опыт создания оригинальной музыки, которая смешивается в богатый климат этнической музыки.
Некоторые лидирующие и наиболее творческие музыканты израильской этнической музыкальной сцены приняли участие в альбоме, добавляя собственный уникальный оттенок. Круг Мечтаний - поездка через культуры, влияния, капризы, ритмы, и ароматы, которые вытекают из одной части к следующей как могучая, старая река, которая всегда была там и останется навсегда.
Трэклист:
1. Circle of Dream - 5:16
2. FestivityLabor - 3:30
Passage - 1:51
3. Oglam - 3:07
4. Little Land - 3:25
Passage - 1:25
5. Return Home - 3:57
Passage - 1:10
6. Open Doors - 4:09
Passage - 2:00
7. Sweet Sophia - 4:23
8. Labor - 2:2 6
Passage - 1:00
14. Lullaby - 3:30
15. Circle of Dreams (end) - 0:57
Состав:
Shem Tov Levy - Flute, Acousic Piano, Keyboards*, Vocals*
Zohar Fresco - Percussion
Ilan Bеn Ami - Guitar, Oud, Saz, Jumbush
Naor Carmi - Вass
Саня Кройтор - Violin
Amir Shahzar - Nay
Guest musicians:
Эмиль Кройтор - Accordion (track 3)
Arnon Friedman - Keyboards (tracks 1, 6, 10)
Nadav Rubinstein - Keyboards (tracks 4, 5, 7, 9)
All compositions by Shem Tov Levy (except track 3, by Саня Кройтор)
 
ВЕРНИСЬ В СВОЙ ДОМ (Далия Равикович, Шем Тов Леви) - перевод
Что снаружи, девочка?
Твои ноги не знают отдыха
Раненная птичка, вернись ко мне
Вернись в свой дом
Слушай голоса
Гром по крышам домов
Береги свою душу от голоса бури
Вернись в свой дом
Высокий месяц полночи
Свет на листьях дуба
Дай своей душе услышать
Маленькую песню
 
EAC log
Exact Audio Copy V0.99 prebeta 4 from 23. January 2008
EAC extraction logfile from 22. July 2009, 11:58
Shem-Tov Levi / Circle of Dreams
Used drive : HL-DT-STDVD-RAM GH22NP20 Adapter: 0 ID: 0
Read mode : Secure
Utilize accurate stream : Yes
Defeat audio cache : Yes
Make use of C2 pointers : No
Read offset correction : 102
Overread into Lead-In and Lead-Out : No
Fill up missing offset samples with silence : Yes
Delete leading and trailing silent blocks : No
Null samples used in CRC calculations : Yes
Used interface : Installed external ASPI interface
Gap handling : Appended to previous track
Used output format : User Defined Encoder
Selected bitrate : 320 kBit/s
Quality : High
Add ID3 tag : Yes
Command line compressor : C:\Program Files\Exact Audio Copy\Flac\flac.exe
Additional command line options : -V -8 -T "artist=%a" -T "title=%t" -T "album=%g" -T "date=%y" -T "tracknumber=%n" -T "genre=%m" %s
TOC of the extracted CD
Track | Start | Length | Start sector | End sector
---------------------------------------------------------
1 | 0:00.00 | 5:27.50 | 0 | 24574
2 | 5:27.50 | 5:10.35 | 24575 | 47859
3 | 10:38.10 | 3:03.68 | 47860 | 61652
4 | 13:42.03 | 4:39.60 | 61653 | 82637
5 | 18:21.63 | 5:16.18 | 82638 | 106355
6 | 23:38.06 | 4:44.15 | 106356 | 127670
7 | 28:22.21 | 4:18.44 | 127671 | 147064
8 | 32:40.65 | 4:05.30 | 147065 | 165469
9 | 36:46.20 | 3:25.70 | 165470 | 180914
10 | 40:12.15 | 0:53.63 | 180915 | 184952
Track 1
Filename D:\music\rip\Shem-Tov Levi - Circle of Dreams (2001)\01 - Circle of Dreams.wav
Pre-gap length 0:00:02.00
Peak level 97.7 %
Track quality 100.0 %
Test CRC A127F613
Copy CRC A127F613
Cannot be verified as accurate (confidence 1) [9DE6DA50], AccurateRip returned [EDD121DE]
Copy OK
Track 2
Filename D:\music\rip\Shem-Tov Levi - Circle of Dreams (2001)\02 - Festivity Labor.wav
Pre-gap length 0:00:00.96
Peak level 97.7 %
Track quality 99.9 %
Test CRC 53EB1C63
Copy CRC 53EB1C63
Cannot be verified as accurate (confidence 1) [010EE616], AccurateRip returned [D8653F88]
Copy OK
Track 3
Filename D:\music\rip\Shem-Tov Levi - Circle of Dreams (2001)\03 - Oglam.wav
Pre-gap length 0:00:00.24
Peak level 97.7 %
Track quality 100.0 %
Test CRC D1930497
Copy CRC D1930497
Cannot be verified as accurate (confidence 1) [A467F70C], AccurateRip returned [9494F870]
Copy OK
Track 4
Filename D:\music\rip\Shem-Tov Levi - Circle of Dreams (2001)\04 - Little Land.wav
Pre-gap length 0:00:01.97
Peak level 97.7 %
Track quality 100.0 %
Test CRC 4498CC58
Copy CRC 4498CC58
Cannot be verified as accurate (confidence 1) [729E4D57], AccurateRip returned [0129B37D]
Copy OK
Track 5
Filename D:\music\rip\Shem-Tov Levi - Circle of Dreams (2001)\05 - Return Home.wav
Pre-gap length 0:00:00.60
Peak level 97.7 %
Track quality 100.0 %
Test CRC C54610F6
Copy CRC C54610F6
Cannot be verified as accurate (confidence 1) [009BDF57], AccurateRip returned [943BD197]
Copy OK
Track 6
Filename D:\music\rip\Shem-Tov Levi - Circle of Dreams (2001)\06 - Open Doors.wav
Pre-gap length 0:00:01.60
Peak level 87.1 %
Track quality 100.0 %
Test CRC D5D619E9
Copy CRC D5D619E9
Cannot be verified as accurate (confidence 1) [804254EC], AccurateRip returned [523BA4AD]
Copy OK
Track 7
Filename D:\music\rip\Shem-Tov Levi - Circle of Dreams (2001)\07 - Sweet Sophia.wav
Peak level 97.7 %
Track quality 100.0 %
Test CRC 9E00C460
Copy CRC 9E00C460
Cannot be verified as accurate (confidence 1) [DACE75B4], AccurateRip returned [B3B8C93B]
Copy OK
Track 8
Filename D:\music\rip\Shem-Tov Levi - Circle of Dreams (2001)\08 - Labor.wav
Pre-gap length 0:00:00.32
Peak level 97.7 %
Track quality 99.9 %
Test CRC AC0E3139
Copy CRC AC0E3139
Cannot be verified as accurate (confidence 1) [8244E5BE], AccurateRip returned [F048C4F8]
Copy OK
Track 9
Filename D:\music\rip\Shem-Tov Levi - Circle of Dreams (2001)\09 - Lullaby.wav
Pre-gap length 0:00:01.58
Peak level 97.7 %
Track quality 100.0 %
Test CRC B5F563C0
Copy CRC B5F563C0
Cannot be verified as accurate (confidence 1) [51EF9544], AccurateRip returned [FBCA20D6]
Copy OK
Track 10
Filename D:\music\rip\Shem-Tov Levi - Circle of Dreams (2001)\10 - Circle of Dreams (end).wav
Pre-gap length 0:00:01.60
Peak level 77.6 %
Track quality 100.0 %
Test CRC 65A967F4
Copy CRC 65A967F4
Cannot be verified as accurate (confidence 1) [CB8F3B2A], AccurateRip returned [D3820B74]
Copy OK
No tracks could be verified as accurate
You may have a different pressing from the one(s) in the database
No errors occurred
End of status report
 
AucDect log
154162480 57800444 01 - Circle of Dreams.wav
369881749 54766364 02 - Festivity Labor.wav
3400729081 32441180 03 - Oglam.wav
1506807045 49356764 04 - Little Land.wav
2220747943 55784780 05 - Return Home.wav
2174772491 50132924 06 - Open Doors.wav
3501903055 45614732 07 - Sweet Sophia.wav
1474508968 43288604 08 - Labor.wav
2458157637 36326684 09 - Lullaby.wav
1859812517 9497420 10 - Circle of Dreams (end).wav
auCDtect: CD records authenticity detector, version 0.8.2
Copyright (c) 2004 Oleg Berngardt. All rights reserved.
Copyright (c) 2004 Alexander Djourik. All rights reserved.
------------------------------------------------------------
Processing file: [01 - Circle of Dreams.wav]
------------------------------------------------------------
This track looks like CDDA with probability 99%
------------------------------------------------------------
Processing file: [02 - Festivity Labor.wav]
------------------------------------------------------------
This track looks like CDDA with probability 99%
------------------------------------------------------------
Processing file: [03 - Oglam.wav]
------------------------------------------------------------
This track looks like CDDA with probability 99%
------------------------------------------------------------
Processing file: [04 - Little Land.wav]
------------------------------------------------------------
This track looks like CDDA with probability 100%
------------------------------------------------------------
Processing file: [05 - Return Home.wav]
------------------------------------------------------------
This track looks like CDDA with probability 100%
------------------------------------------------------------
Processing file: [06 - Open Doors.wav]
------------------------------------------------------------
This track looks like CDDA with probability 100%
------------------------------------------------------------
Processing file: [07 - Sweet Sophia.wav]
------------------------------------------------------------
This track looks like CDDA with probability 100%
------------------------------------------------------------
Processing file: [08 - Labor.wav]
------------------------------------------------------------
This track looks like CDDA with probability 100%
------------------------------------------------------------
Processing file: [09 - Lullaby.wav]
------------------------------------------------------------
This track looks like CDDA with probability 100%
------------------------------------------------------------
Processing file: [10 - Circle of Dreams (end).wav]
------------------------------------------------------------
This track looks like CDDA with probability 100%
------------------------------------------------------------
Final Conclusion:
------------------------------------------------------------
These tracks looks like CDDA with probability 100%
Shem-Tov Levi в других разделах трекккера
(Progerssive, Ethnic, Rock) Shem-Tov Levi, Sheshet - 4 albumes - 1975, 1977, 1981, 1994, MP3 (tracks), 320 kbps
(Progerssive, Ethnic, Rock) Shem-Tov Levi, Sheshet - 4 albumes - 1975, 1977, 1981, 1994, FLAC (tracks+.cue), lossless
(Instrumental, Classica Israeli) Shem-Tov Levi - Ne'Imot Moledet - 1986, FLAC (tracks+.cue), lossless
(Instrumental, Classica Israeli) Shem-Tov Levi - Ne'Imot Moledet - 1986, MP3 (tracks), 320 kbps
Я не сидирую все свои раздачи подолгу, только новые (до 3х первых сидов)
Предлагаю скачавшим максимально долго оставаться на раздаче - весь рейтинг будет ваш
Если нет сидов или раздача находится в архиве, пришлите письмо, и я вернусь
Download available for power users only.
07:34
219
Нет комментариев. Ваш будет первым!