Вы используете незарегистрированную версию компонента "Вкладки"!

Поиск

(jazz, avant-garde) Steve Lacy Nine - Futurities, Part I & II 1984, 85, FLAC (tracks+.cue), lossless

(jazz, avant-garde) Steve Lacy Nine - Futurities, Part I & II 1984, 85, FLAC (tracks+.cue), lossless
Треклист:


Steve Lacy Nine Futurities , Part I & II
Жанр: jazz, avant-garde
Год выпуска: 1984,85
Формат: FLAC (tracks+.cue)
Битрейт аудио: lossless
Продолжительность: 1`35`04
Источник: ed2k

Part I

01 Sad Advice.flac
02 The House.flac
03 Love Comes Quietly.flac
04 Old Song.flac
05 The Warning.flac
06 Juggler's Thought.flac
07 Jack's Blues.flac
08 Mind's Heart.flac
09 Chanson.flac
10 The End of the Day.flac

 
.log
Exact Audio Copy V0.99 prebeta 4 from 23. January 2008
EAC extraction logfile from -
steve lacy nine / steve lacy nine - futurities v01 - hat art
Used drive : BENQ DVD DD DW1640 Adapter: 1 ID: 1
Read mode : Secure
Utilize accurate stream : Yes
Defeat audio cache : Yes
Make use of C2 pointers : No
Read offset correction : 618
Overread into Lead-In and Lead-Out : No
Fill up missing offset samples with silence : Yes
Delete leading and trailing silent blocks : No
Null samples used in CRC calculations : No
Used interface : Installed external ASPI interface
Gap handling : Appended to previous track
Used output format : Internal WAV Routines
Sample format : 44.100 Hz; 16 Bit; Stereo
TOC of the extracted CD
Track | Start | Length | Start sector | End sector
---------------------------------------------------------
1 | 0:00.00 | 3:25.62 | 0 | 15436
2 | 3:25.62 | 4:38.65 | 15437 | 36351
3 | 8:04.52 | 4:42.08 | 36352 | 57509
4 | 12:46.60 | 5:36.55 | 57510 | 82764
5 | 18:23.40 | 3:59.42 | 82765 | 100731
6 | 22:23.07 | 4:19.03 | 100732 | 120159
7 | 26:42.10 | 4:21.27 | 120160 | 139761
8 | 31:03.37 | 3:57.65 | 139762 | 157601
9 | 35:01.27 | 4:30.63 | 157602 | 177914
10 | 39:32.15 | 5:58.60 | 177915 | 204824
Track 1
Filename C:\out\eac\lacy,steve-nine -futurities_part01-hatart\steve_lacy_nine-futurities,pt1-101-sad_advice.wav
Pre-gap length 0:00:02.00
Peak level 72.7 %
Track quality 100.0 %
Test CRC 6BD63D4B
Copy CRC 6BD63D4B
Track not present in AccurateRip database
Copy OK
Track 2
Filename C:\out\eac\lacy,steve-nine -futurities_part01-hatart\steve_lacy_nine-futurities,pt1-102-the_house.wav
Peak level 73.8 %
Track quality 100.0 %
Test CRC F2424140
Copy CRC F2424140
Track not present in AccurateRip database
Copy OK
Track 3
Filename C:\out\eac\lacy,steve-nine -futurities_part01-hatart\steve_lacy_nine-futurities,pt1-103-love_comes_quietly.wav
Peak level 61.7 %
Track quality 100.0 %
Test CRC 88B6A646
Copy CRC 88B6A646
Track not present in AccurateRip database
Copy OK
Track 4
Filename C:\out\eac\lacy,steve-nine -futurities_part01-hatart\steve_lacy_nine-futurities,pt1-104-old_song.wav
Peak level 87.6 %
Track quality 100.0 %
Test CRC 4A082CE3
Copy CRC 4A082CE3
Track not present in AccurateRip database
Copy OK
Track 5
Filename C:\out\eac\lacy,steve-nine -futurities_part01-hatart\steve_lacy_nine-futurities,pt1-105-the_warning.wav
Peak level 80.2 %
Track quality 100.0 %
Test CRC 4675A366
Copy CRC 4675A366
Track not present in AccurateRip database
Copy OK
Track 6
Filename C:\out\eac\lacy,steve-nine -futurities_part01-hatart\steve_lacy_nine-futurities,pt1-106-juggler's_thought.wav
Peak level 50.1 %
Track quality 100.0 %
Test CRC 4918D3DF
Copy CRC 4918D3DF
Track not present in AccurateRip database
Copy OK
Track 7
Filename C:\out\eac\lacy,steve-nine -futurities_part01-hatart\steve_lacy_nine-futurities,pt1-107-jack's_blues.wav
Peak level 82.7 %
Track quality 100.0 %
Test CRC 9E38C846
Copy CRC 9E38C846
Track not present in AccurateRip database
Copy OK
Track 8
Filename C:\out\eac\lacy,steve-nine -futurities_part01-hatart\steve_lacy_nine-futurities,pt1-108-mind's_heart.wav
Peak level 71.4 %
Track quality 99.9 %
Test CRC 4CB25229
Copy CRC 4CB25229
Track not present in AccurateRip database
Copy OK
Track 9
Filename C:\out\eac\lacy,steve-nine -futurities_part01-hatart\steve_lacy_nine-futurities,pt1-109-chanson.wav
Peak level 71.1 %
Track quality 100.0 %
Test CRC F3CA50BA
Copy CRC F3CA50BA
Track not present in AccurateRip database
Copy OK
Track 10
Filename C:\out\eac\lacy,steve-nine -futurities_part01-hatart\steve_lacy_nine-futurities,pt1-110-the_end_of_the_day.wav
Peak level 71.5 %
Track quality 100.0 %
Test CRC 759356EF
Copy CRC 759356EF
Track not present in AccurateRip database
Copy OK
None of the tracks are present in the AccurateRip database
No errors occurred
End of status report
 
.cue
REM GENRE Avant - jazz
REM DATE 1984, 85
CATALOG hatART CD 6031
PERFORMER "Steve Lacy"
TITLE "Futurities, Part I"
FILE "01 Sad Advice.flac" WAVE
TRACK 01 AUDIO
TITLE "Sad Advice"
INDEX 01 00:00:00
FILE "02 The House.flac" WAVE
TRACK 02 AUDIO
TITLE "The House"
INDEX 01 00:00:00
FILE "03 Love Comes Quietly.flac" WAVE
TRACK 03 AUDIO
TITLE "Love Comes Quietly"
INDEX 01 00:00:00
FILE "04 Old Song.flac" WAVE
TRACK 04 AUDIO
TITLE "Old Song"
INDEX 01 00:00:00
FILE "05 The Warning.flac" WAVE
TRACK 05 AUDIO
TITLE "The Warning"
INDEX 01 00:00:00
FILE "06 Juggler's Thought.flac" WAVE
TRACK 06 AUDIO
TITLE "Juggler's Thought"
INDEX 01 00:00:00
FILE "07 Jack's Blues.flac" WAVE
TRACK 07 AUDIO
TITLE "Jack's Blues"
INDEX 01 00:00:00
FILE "08 Mind's Heart.flac" WAVE
TRACK 08 AUDIO
TITLE "Mind's Heart"
INDEX 01 00:00:00
FILE "09 Chanson.flac" WAVE
TRACK 09 AUDIO
TITLE "Chanson"
INDEX 01 00:00:00
FILE "10 The End of the Day.flac" WAVE
TRACK 10 AUDIO
TITLE "The End of the Day"
INDEX 01 00:00:00


Part II

01 A Folk Song.flac
02 The Traveller.flac
03 Oh No.flac
04 They Say.flac
05 Heaven.flac
06 Train Going By.flac
07 The Eye.flac
08 For No Clear Reason.flac
09 The Rhythm.flac
10 Night Time.flac

 
.log
Exact Audio Copy V0.99 prebeta 4 from 23. January 2008
EAC extraction logfile from -
steve lacy nine / steve lacy nine - futurities v02 - hat art
Used drive : BENQ DVD DD DW1640 Adapter: 1 ID: 1
Read mode : Secure
Utilize accurate stream : Yes
Defeat audio cache : Yes
Make use of C2 pointers : No
Read offset correction : 618
Overread into Lead-In and Lead-Out : No
Fill up missing offset samples with silence : Yes
Delete leading and trailing silent blocks : No
Null samples used in CRC calculations : No
Used interface : Installed external ASPI interface
Gap handling : Appended to previous track
Used output format : Internal WAV Routines
Sample format : 44.100 Hz; 16 Bit; Stereo
TOC of the extracted CD
Track | Start | Length | Start sector | End sector
---------------------------------------------------------
1 | 0:00.00 | 3:33.37 | 0 | 16011
2 | 3:33.37 | 3:33.63 | 16012 | 32049
3 | 7:07.25 | 5:07.00 | 32050 | 55074
4 | 12:14.25 | 4:02.37 | 55075 | 73261
5 | 16:16.62 | 6:35.00 | 73262 | 102886
6 | 22:51.62 | 4:27.00 | 102887 | 122911
7 | 27:18.62 | 6:38.38 | 122912 | 152799
8 | 33:57.25 | 5:15.25 | 152800 | 176449
9 | 39:12.50 | 7:40.00 | 176450 | 210949
10 | 46:52.50 | 2:40.25 | 210950 | 222974
Track 1
Filename C:\out\eac\lacy,steve-nine -futurities_part01-hatart\steve_lacy_nine-futurities,pt2-201-a_folk_song.wav
Pre-gap length 0:00:02.00
Peak level 66.4 %
Track quality 99.9 %
Test CRC B4049B20
Copy CRC B4049B20
Track not present in AccurateRip database
Copy OK
Track 2
Filename C:\out\eac\lacy,steve-nine -futurities_part01-hatart\steve_lacy_nine-futurities,pt2-202-the_traveler.wav
Peak level 87.3 %
Track quality 99.9 %
Test CRC FD9BDDBC
Copy CRC FD9BDDBC
Track not present in AccurateRip database
Copy OK
Track 3
Filename C:\out\eac\lacy,steve-nine -futurities_part01-hatart\steve_lacy_nine-futurities,pt2-203-oh_no.wav
Peak level 92.2 %
Track quality 100.0 %
Test CRC 5194435D
Copy CRC 5194435D
Track not present in AccurateRip database
Copy OK
Track 4
Filename C:\out\eac\lacy,steve-nine -futurities_part01-hatart\steve_lacy_nine-futurities,pt2-204-they_say.wav
Peak level 87.3 %
Track quality 100.0 %
Test CRC 295ADCE3
Copy CRC 295ADCE3
Track not present in AccurateRip database
Copy OK
Track 5
Filename C:\out\eac\lacy,steve-nine -futurities_part01-hatart\steve_lacy_nine-futurities,pt2-205-heaven.wav
Peak level 51.2 %
Track quality 100.0 %
Test CRC 3AF193DF
Copy CRC 3AF193DF
Track not present in AccurateRip database
Copy OK
Track 6
Filename C:\out\eac\lacy,steve-nine -futurities_part01-hatart\steve_lacy_nine-futurities,pt2-206-train_going_by.wav
Peak level 81.8 %
Track quality 100.0 %
Test CRC F684357F
Copy CRC F684357F
Track not present in AccurateRip database
Copy OK
Track 7
Filename C:\out\eac\lacy,steve-nine -futurities_part01-hatart\steve_lacy_nine-futurities,pt2-207-the_eye.wav
Peak level 73.8 %
Track quality 100.0 %
Test CRC 39A3E8AA
Copy CRC 39A3E8AA
Track not present in AccurateRip database
Copy OK
Track 8
Filename C:\out\eac\lacy,steve-nine -futurities_part01-hatart\steve_lacy_nine-futurities,pt2-208-for_no_clear_reason.wav
Peak level 80.1 %
Track quality 100.0 %
Test CRC 7CD6B102
Copy CRC 7CD6B102
Track not present in AccurateRip database
Copy OK
Track 9
Filename C:\out\eac\lacy,steve-nine -futurities_part01-hatart\steve_lacy_nine-futurities,pt2-209-the_rhythm.wav
Peak level 83.6 %
Track quality 100.0 %
Test CRC 94C98583
Copy CRC 94C98583
Track not present in AccurateRip database
Copy OK
Track 10
Filename C:\out\eac\lacy,steve-nine -futurities_part01-hatart\steve_lacy_nine-futurities,pt2-210-night_time.wav
Peak level 65.0 %
Track quality 100.0 %
Test CRC 0A30A6AD
Copy CRC 0A30A6AD
Track not present in AccurateRip database
Copy OK
None of the tracks are present in the AccurateRip database
No errors occurred
End of status report
 
.cue
REM GENRE Avant - jazz
REM DATE 1984, 85
CATALOG hatART CD 6032
PERFORMER "Steve Lacy"
TITLE "Futurities, Part II"
FILE "01 A Folk Song.flac" WAVE
TRACK 01 AUDIO
TITLE "A Folk Song"
INDEX 01 00:00:00
FILE "02 The Traveller.flac" WAVE
TRACK 02 AUDIO
TITLE "The Traveller"
INDEX 01 00:00:00
FILE "03 Oh No.flac" WAVE
TRACK 03 AUDIO
TITLE "Oh No"
INDEX 01 00:00:00
FILE "04 They Say.flac" WAVE
TRACK 04 AUDIO
TITLE "They Say"
INDEX 01 00:00:00
FILE "05 Heaven.flac" WAVE
TRACK 05 AUDIO
TITLE "Heaven"
INDEX 01 00:00:00
FILE "06 Train Going By.flac" WAVE
TRACK 06 AUDIO
TITLE "Train Going By"
INDEX 01 00:00:00
FILE "07 The Eye.flac" WAVE
TRACK 07 AUDIO
TITLE "The Eye"
INDEX 01 00:00:00
FILE "08 For No Clear Reason.flac" WAVE
TRACK 08 AUDIO
TITLE "For No Clear Reason"
INDEX 01 00:00:00
FILE "09 The Rhythm.flac" WAVE
TRACK 09 AUDIO
TITLE "The Rhythm"
INDEX 01 00:00:00
FILE "10 Night Time.flac" WAVE
TRACK 10 AUDIO
TITLE "Night Time"
INDEX 01 00:00:00


другие релизы
Any questions -> support@pro-jazz.com. По всем вопросам пишите -> support@pro-jazz.com
19:04
204
Нет комментариев. Ваш будет первым!