Вы используете незарегистрированную версию компонента "Вкладки"!

Поиск

(Jazz, Avant-Garde, Free Funk) Music Revelation Ensemble - After Dark - 1992, FLAC (image+.cue), lossless

(Jazz, Avant-Garde, Free Funk) Music Revelation Ensemble - After Dark - 1992, FLAC (image+.cue), lossless
Треклист:
Music Revelation Ensemble - After Dark
Жанр: Jazz, Avant-Garde, Free Funk
Год выпуска диска: 1992
Производитель диска: DIW-855
Аудио кодек: FLAC
Тип рипа: image+.cue
Битрейт аудио: lossless
Продолжительность: 69:01
Ripper: desertrat aka wustenratte
Трэклист:
1. Interview
2. Never Mind
3. Maya
4. After Dark
5. Back Talk
6. What's Your Name
7. Iceman
James "Blood" Ulmer: Guitar
David Murray: Tenor Sax
Amin Ali: Electric Bass
Cornell Rochester: Drums
 
EAC extraction logfile
Exact Audio Copy V0.99 prebeta 4 from 23. January 2008
EAC extraction logfile from 17. February 2010, 8:59
Music Revelation Ensemble / After Dark
Used drive : Optiarc DVD RW AD-7560A Adapter: 0 ID: 0
Read mode : Secure
Utilize accurate stream : Yes
Defeat audio cache : Yes
Make use of C2 pointers : No
Read offset correction : 6
Overread into Lead-In and Lead-Out : No
Fill up missing offset samples with silence : Yes
Delete leading and trailing silent blocks : No
Null samples used in CRC calculations : Yes
Used interface : Native Win32 interface for Win NT & 2000
Used output format : Internal WAV Routines
Sample format : 44.100 Hz; 16 Bit; Stereo
TOC of the extracted CD
Track | Start | Length | Start sector | End sector
---------------------------------------------------------
1 | 0:00.00 | 7:36.62 | 0 | 34261
2 | 7:36.62 | 12:16.50 | 34262 | 89511
3 | 19:53.37 | 10:06.53 | 89512 | 135014
4 | 30:00.15 | 12:45.60 | 135015 | 192449
5 | 42:46.00 | 7:16.20 | 192450 | 225169
6 | 50:02.20 | 10:27.55 | 225170 | 272249
7 | 60:30.00 | 8:31.00 | 272250 | 310574
Range status and errors
Selected range
Filename C:\DESERTRAT EAC RIPs\17 MRE - AFTER DARK (1991)\Music Revelation Ensemble - After Dark.wav
Peak level 100.0 %
Range quality 100.0 %
Test CRC 64543878
Copy CRC 64543878
Copy OK
No errors occurred
AccurateRip summary
Track 1 not present in database
Track 2 not present in database
Track 3 not present in database
Track 4 not present in database
Track 5 not present in database
Track 6 not present in database
Track 7 not present in database
None of the tracks are present in the AccurateRip database
End of status report
Any questions -> support@pro-jazz.com. По всем вопросам пишите -> support@pro-jazz.com
19:05
137
Нет комментариев. Ваш будет первым!