Поиск

(Jazz, Avant-Garde Jazz, Jazz-Fusion, Klezmer, Instrumental) (Jazz, Avant-Garde, Fusion) Electric Masada - At the Mountains of Madness (John Zorn) - 2005, APE (image + .cue), lossless

(Jazz, Avant-Garde Jazz, Jazz-Fusion, Klezmer, Instrumental) (Jazz, Avant-Garde, Fusion) Electric Masada - At the Mountains of Madness (John Zorn) - 2005, APE (image + .cue), lossless
Треклист:
Electric Masada - At the Mountains of Madness (John Zorn) - Live
Страна: U.S.A.
Жанр: Jazz, Avant-Garde Jazz, Jazz-Fusion, Klezmer, Instrumental
Год выпуска: 2005
Формат: APE (image + .cue)
Битрейт аудио: lossless
Продолжительность: CD1 - 79:51; CD2 - 76:28
Трэклист:
Disc 1:
1. Lilin
2. Metal Tov
3. Karaim
4. Hath-Arob
5. Abidan
6. Idalah-Abal
7. Kedem
8. Yatzar
Disc 2:
1. Tekufah
2. Hath-Arob
3. Abidan
4. Metal Tov
5. Karaim
6. Idalah-Abal
7. Kedem
Доп. информация: Данный релиз представляет собой концертные записи европейского тура 2004 года Electric Masada. Так говорится на самом сайте tzadik. Однако, в буклете (точнее на коробке, буклета нет) указана информации о том, где именно сделана запись. Это записи концертов в Москве (диск 1) и Ljubljana, Словения (диск 2). Сам был на Московском концерте. Впечатления положительные. Но от CD пришел в еще больший восторг. Самое интересное, это не только со мной такое. Многие знакомые, из тех, кто был на указанном концерте в России, точно так же отзываются о своих ощущениях. Может на момент приезда мы просто не доросли до такой замечательной музыки. По другому я лично этот факт объяснить не могу
Состав приезжал звездный:
Cyro Baptista: Percussion; Joey Baron: Drums; Trevor Dunn: Bass; Ikue Mori: Electronics; Marc Ribot: Guitar; Jamie Saft: Keyboards; Kenny Wollesen: Drums; John Zorn: Alto Sax.
Запись более грязная по отношению к 50th Birthday Celebration - Electric Masada. Но по своему хороша!
Рекомендую к прослушиванию!
Отчёт EAC об извлечении:
 
скрытый текст
Exact Audio Copy V0.99 prebeta 3 from 28. July 2007
Отчёт EAC об извлечении, выполненном 25. марта 2008, 0:18
Electric Masada / At the Mountains of Madness 1
Дисковод: Optiarc DVD RW AD-5170A Adapter: 2 ID: 0
Режим чтения : Достоверность
Использование точного потока : Да
Отключение кэша аудио : Да
Использование указателей C2 : Нет
Коррекция смещения при чтении : 48
Способность читать области Lead-in и Lead-out : Да
Заполнение пропущенных сэмплов тишиной : Да
Удаление блоков с тишиной в начале и конце : Нет
При вычислениях CRC использовались нулевые сэмплы : Нет
Интерфейс : Встроенный Win32-интерфейс для Win NT/2000
Выходной формат : Внутренние WAV-операции
Формат сэмплов : 44.100 Гц; 16 бит; стерео
TOC извлечённого CD
Трек | Старт | Длительность | Начальный сектор | Конечный сектор
---------------------------------------------------------------------
1 | 0:00.00 | 16:14.07 | 0 | 73056
2 | 16:14.07 | 5:35.09 | 73057 | 98190
3 | 21:49.16 | 16:15.38 | 98191 | 171353
4 | 38:04.54 | 5:17.00 | 171354 | 195128
5 | 43:21.54 | 8:09.63 | 195129 | 231866
6 | 51:31.42 | 6:33.36 | 231867 | 261377
7 | 58:05.03 | 15:41.11 | 261378 | 331963
8 | 73:46.14 | 6:05.58 | 331964 | 359396
Характеристики диапазона извлечения и сообщения об ошибках
Выбранный диапазон
Имя файла F:\m\music\1\Electric Masada - At the Mountains of Madness\1\Electric Masada - At the Mountains of Madness 1.wav
Пиковый уровень 98.8 %
Качество диапазона 99.9 %
CRC копии 42F9152C
Копирование... OK
Ошибок не произошло
Exact Audio Copy V0.99 prebeta 3 from 28. July 2007
Отчёт EAC об извлечении, выполненном 24. марта 2008, 23:53
Electric Masada / At the Mountains of Madness 2
Дисковод: Optiarc DVD RW AD-5170A Adapter: 2 ID: 0
Режим чтения : Достоверность
Использование точного потока : Да
Отключение кэша аудио : Да
Использование указателей C2 : Нет
Коррекция смещения при чтении : 48
Способность читать области Lead-in и Lead-out : Да
Заполнение пропущенных сэмплов тишиной : Да
Удаление блоков с тишиной в начале и конце : Нет
При вычислениях CRC использовались нулевые сэмплы : Нет
Интерфейс : Встроенный Win32-интерфейс для Win NT/2000
Выходной формат : Внутренние WAV-операции
Формат сэмплов : 44.100 Гц; 16 бит; стерео
TOC извлечённого CD
Трек | Старт | Длительность | Начальный сектор | Конечный сектор
---------------------------------------------------------------------
1 | 0:00.00 | 17:59.43 | 0 | 80967
2 | 17:59.43 | 6:55.45 | 80968 | 112137
3 | 24:55.13 | 9:59.29 | 112138 | 157091
4 | 34:54.42 | 5:52.12 | 157092 | 183503
5 | 40:46.54 | 15:15.44 | 183504 | 252172
6 | 56:02.23 | 6:08.20 | 252173 | 279792
7 | 62:10.43 | 14:47.36 | 279793 | 346353
Характеристики диапазона извлечения и сообщения об ошибках
Выбранный диапазон
Имя файла F:\m\music\1\Electric Masada - At the Mountains of Madness\2\Electric Masada - At the Mountains of Madness 2.wav
Пиковый уровень 99.8 %
Качество диапазона 100.0 %
CRC копии D09B99B2
Копирование... OK
Ошибок не произошло
Конец отчёта
Коробка:
 
скрытый текст
ВНИМАНИЕ: необходимо закачать заново торрент. Он переделан в соответствии с рекомендациями.
Приватный:
Нет (DHT включён)
Размер:
1.11 Гб (1,187,677,908 байт) » файлов: 6
Участники:
0 раздают, 0 качают (0 участников всего)
Внешние участники:
1 раздают, 0 качают (1 участников всего) [ Обновить ]
Есть вопросы - пишите личное сообщение пользователю M0p94ok.
00:11
74
Нет комментариев. Ваш будет первым!