Поиск

(Avant-Garde Jazz / Post-Bop) ECM Selected Recordings — Art Ensemble of Chicago — 2002, FLAC (tracks)

Треклист:
ECM Selected Recordings
Art Ensemble of Chicago
Label: ECM
Жанр: Avant-Garde Jazz / Post-Bop
Год выпуска: 2002
Формат: FLAC (tracks)
Продолжительность: 68:15
Трэклист:
Charlie M 9:23
Magg Zelma 19:55
Rios Negroes 7:18
Folkus 11:00
Nine To Get Ready 3:50
Prayer For Jimbo Kwesi 9:49
Odwalla Theme 5:13
Nice Guys 1:41
Доп. информация:
в записи принимали участие:
Art Ensemble of Chicago
Lester Bowie
Joseph Jarman
Roscoe Mitchell
Malachi Favors Maghostus
Famoudou Don Moye
Hamiet Bluiett
Donald Smith
Fred Williams
Phillip Wilson
Fontella Bass
David Peaston
Hugh Ragin
George Lewis
Matthew Shipp
Craig Taborn
Jaribu Shahid
William Parker
Tanni Tabbal
Gerald Cleaver
Recordings 1978-1997
 
коротко об альбоме
Formed in 1966, the Art Ensemble of Chicago continues to be one of the most influential groups on jazz’s progressive wing. Its motto – “Great Black Music, Ancient to the Future!” – is also its far-reaching programme. Roscoe Mitchell , Famoudou Don Moye and Malachi Favors Maghostus selected Art Ensemble compositions for this anthology – “We have enjoyed many great musical experiences with ECM” – adding also related material by Mitchell’s prize-winning Note Factory band and by the late, great Lester Bowie.
http://ecmrecords.com/Catalogue/rarum/8006.php?cat=%2FArtists%2FBowie+Lester%23%2...&lvredir=712
подробно об альбоме
 
скрытый текст
Отчёт EAC об извлечении, выполненном 24. марта 2008, 2:00 для диска:
Art Ensemble Of Chicago / Selected Recordings Rarum VI
Дисковод: TSSTcorpCDDVDW SH-S203D Adapter: 2 ID: 1
Режим чтения: Достоверный (C2: нет, Точный поток: да, Отключение кэша: да)
Коррекция смещения при чтении: 6
Способность читать области Lead-in и Lead-out : Нет
Выходной формат: Внутренние WAV-операции
44.100 Гц; 16 бит; стерео
Другие параметры:
Заполнение пропущенных сэмплов тишиной : Да
Удаление блоков с тишиной в начале и конце : Нет
Встроенный Win32-интерфейс для Win NT/2000
Трек 1
Имя файла C:\Documents and Settings\EACtemp\(01) Charlie M - Art Ensemble Of Chicago.wav
Пиковый уровень 85.9 %
Качество трека 100.0 %
CRC теста 9CE1E26C
CRC копии 9CE1E26C
Копирование... OK
Трек 2
Имя файла C:\Documents and Settings\EACtemp\(02) Magg Zelma - Art Ensemble Of Chicago.wav
Пиковый уровень 92.5 %
Качество трека 100.0 %
CRC теста 77F6E305
CRC копии 77F6E305
Копирование... OK
Трек 3
Имя файла C:\Documents and Settings\EACtemp\(03) Rios Negroes - Art Ensemble Of Chicago.wav
Пиковый уровень 79.9 %
Качество трека 100.0 %
CRC теста 0C4877A3
CRC копии 0C4877A3
Копирование... OK
Трек 4
Имя файла C:\Documents and Settings\EACtemp\(04) Folkus - Art Ensemble Of Chicago.wav
Пиковый уровень 74.8 %
Качество трека 100.0 %
CRC теста FE8962AF
CRC копии FE8962AF
Копирование... OK
Трек 5
Имя файла C:\Documents and Settings\EACtemp\(05) Nine To Get Ready - Art Ensemble Of Chicago.wav
Пиковый уровень 90.2 %
Качество трека 100.0 %
CRC теста FB978C9F
CRC копии FB978C9F
Копирование... OK
Трек 6
Имя файла C:\Documents and Settings\EACtemp\(06) Prayer For Jimbo Kwesi - Art Ensemble Of Chicago.wav
Пиковый уровень 67.4 %
Качество трека 100.0 %
CRC теста B9C3C2A6
CRC копии B9C3C2A6
Копирование... OK
Трек 7
Имя файла C:\Documents and Settings\EACtemp\(07) Odwalla,Theme - Art Ensemble Of Chicago.wav
Пиковый уровень 84.2 %
Качество трека 100.0 %
CRC теста 101CDE17
CRC копии 101CDE17
Копирование... OK
Трек 8
Имя файла C:\Documents and Settings\EACtemp\(08) Nice Guys - Art Ensemble Of Chicago.wav
Пиковый уровень 70.4 %
Качество трека 99.8 %
CRC теста C14A1767
CRC копии C14A1767
Копирование... OK
Ошибок не произошло
Конец отчёта

Приватный:
Нет (DHT включён)
Размер:
378.08 Мб (396,448,146 байт) » файлов: 13
Участники:
0 раздают, 0 качают (0 участников всего)
Внешние участники:
5 раздают, 1 качают (6 участников всего) [ Обновить ]
Есть вопросы - пишите личное сообщение пользователю M0p94ok.
00:08
47
Нет комментариев. Ваш будет первым!