Вы используете незарегистрированную версию компонента "Вкладки"!

Поиск

(jazz, avant-garde) Howard Riley, John Tilbury, Keith Tippett - Another Part Of The Story 2002, FLAC (tracks+.cue), lossless

Треклист:


Howard Riley, John Tilbury, Keith Tippett
Another Part Of The Story
Жанр: jazz,avant-garde
Год выпуска: 2002
Формат: FLAC (tracks+.cue)
Битрейт аудио: lossless
Продолжительность
Источник: ed2k
HOWARD RILEY piano
JOHN TILBURY piano
KEITH TIPPETT piano

tracks

01-Jump up.flac
02-Equanimity.flac
03-Equal play.flac
04-Sonorities one.flac
05-Sonorities two.flac
06-Being prepared.flac
07-Threeway.flac
08-Pow.flac


 
logfile
X Lossless Decoder version 20091225 (115.1)
XLD extraction logfile from 2009-12-28 15:34:49 -0500
\\Howard Riley, John Tilbury, Keith Tippett / Another Part of the Story
Used drive : MATSHITA DVD-R UJ-868 (revision KA14)
Use cdparanoia mode : YES (CDParanoia III 10.2 engine)
Disable audio cache : OK for the drive with cache less than 2750KB
Make use of C2 pointers : NO
Read offset correction : 102
Max retry count : 100
TOC of the extracted CD
Track | Start | Length | Start sector | End sector
---------------------------------------------------------
1 | 00:00:00 | 07:04:00 | 0 | 31799
2 | 07:04:00 | 09:47:60 | 31800 | 75884
3 | 16:51:60 | 14:22:11 | 75885 | 140545
4 | 31:13:71 | 04:53:74 | 140546 | 162594
5 | 36:07:70 | 02:28:02 | 162595 | 173696
6 | 38:35:72 | 21:30:47 | 173697 | 270493
7 | 60:06:44 | 05:07:21 | 270494 | 293539
8 | 65:13:65 | 00:54:04 | 293540 | 297593
Track 01
Filename : /Users/toydesign/Desktop/whatcd2/Howard Riley: John Tilbury: Keith Tippett/Another Part Of The Story/01 \\Howard Riley, John Tilbury, Keith Tippett - Jump up.flac
Pre-gap length : 00:02:00
CRC32 hash (test run) : FCDD2A31
CRC32 hash : FCDD2A31
CRC32 hash (skip zero) : D3548B46
AccurateRip signature : 9B1510C0
->Accurately ripped! (confidence 1)
Statistics
Read error : 0
Skipped (treated as error) : 0
Edge jitter error (maybe fixed) : 0
Atom jitter error (maybe fixed) : 0
Drift error (maybe fixed) : 0
Dropped bytes error (maybe fixed) : 0
Duplicated bytes error (maybe fixed) : 0
Track 02
Filename : /Users/toydesign/Desktop/whatcd2/Howard Riley: John Tilbury: Keith Tippett/Another Part Of The Story/02 \\Howard Riley, John Tilbury, Keith Tippett - Equanimity.flac
Pre-gap length : 00:04:00
CRC32 hash (test run) : 97A71FC9
CRC32 hash : 97A71FC9
CRC32 hash (skip zero) : 6F1F93B5
AccurateRip signature : A6746275
->Accurately ripped! (confidence 1)
Statistics
Read error : 0
Skipped (treated as error) : 0
Edge jitter error (maybe fixed) : 0
Atom jitter error (maybe fixed) : 0
Drift error (maybe fixed) : 0
Dropped bytes error (maybe fixed) : 0
Duplicated bytes error (maybe fixed) : 0
Track 03
Filename : /Users/toydesign/Desktop/whatcd2/Howard Riley: John Tilbury: Keith Tippett/Another Part Of The Story/03 \\Howard Riley, John Tilbury, Keith Tippett - Equal play.flac
Pre-gap length : 00:04:00
CRC32 hash (test run) : 5C41AE8A
CRC32 hash : 5C41AE8A
CRC32 hash (skip zero) : E18778D5
AccurateRip signature : 054C25C6
->Accurately ripped! (confidence 1)
Statistics
Read error : 0
Skipped (treated as error) : 0
Edge jitter error (maybe fixed) : 0
Atom jitter error (maybe fixed) : 0
Drift error (maybe fixed) : 0
Dropped bytes error (maybe fixed) : 0
Duplicated bytes error (maybe fixed) : 0
Track 04
Filename : /Users/toydesign/Desktop/whatcd2/Howard Riley: John Tilbury: Keith Tippett/Another Part Of The Story/04 \\Howard Riley, John Tilbury, Keith Tippett - Sonorities one.flac
Pre-gap length : 00:04:00
CRC32 hash (test run) : ED1B1337
CRC32 hash : ED1B1337
CRC32 hash (skip zero) : 10B9D439
AccurateRip signature : 8D73771D
->Accurately ripped! (confidence 1)
Statistics
Read error : 0
Skipped (treated as error) : 0
Edge jitter error (maybe fixed) : 0
Atom jitter error (maybe fixed) : 0
Drift error (maybe fixed) : 0
Dropped bytes error (maybe fixed) : 0
Duplicated bytes error (maybe fixed) : 0
Track 05
Filename : /Users/toydesign/Desktop/whatcd2/Howard Riley: John Tilbury: Keith Tippett/Another Part Of The Story/05 \\Howard Riley, John Tilbury, Keith Tippett - Sonorities two.flac
Pre-gap length : 00:04:00
CRC32 hash (test run) : D6ECA614
CRC32 hash : D6ECA614
CRC32 hash (skip zero) : 7A129E6F
AccurateRip signature : 354749FE
->Accurately ripped! (confidence 1)
Statistics
Read error : 0
Skipped (treated as error) : 0
Edge jitter error (maybe fixed) : 0
Atom jitter error (maybe fixed) : 0
Drift error (maybe fixed) : 0
Dropped bytes error (maybe fixed) : 0
Duplicated bytes error (maybe fixed) : 0
Track 06
Filename : /Users/toydesign/Desktop/whatcd2/Howard Riley: John Tilbury: Keith Tippett/Another Part Of The Story/06 \\Howard Riley, John Tilbury, Keith Tippett - Being prepared.flac
Pre-gap length : 00:04:00
CRC32 hash (test run) : 3052DE6E
CRC32 hash : 3052DE6E
CRC32 hash (skip zero) : 637ECA5B
AccurateRip signature : 7547B9F4
->Accurately ripped! (confidence 1)
Statistics
Read error : 0
Skipped (treated as error) : 0
Edge jitter error (maybe fixed) : 0
Atom jitter error (maybe fixed) : 0
Drift error (maybe fixed) : 0
Dropped bytes error (maybe fixed) : 0
Duplicated bytes error (maybe fixed) : 0
Track 07
Filename : /Users/toydesign/Desktop/whatcd2/Howard Riley: John Tilbury: Keith Tippett/Another Part Of The Story/07 \\Howard Riley, John Tilbury, Keith Tippett - Threeway.flac
Pre-gap length : 00:04:00
CRC32 hash (test run) : 08C05A9A
CRC32 hash : 08C05A9A
CRC32 hash (skip zero) : 5A3B929B
AccurateRip signature : 6F3AA1A1
->Accurately ripped! (confidence 1)
Statistics
Read error : 0
Skipped (treated as error) : 0
Edge jitter error (maybe fixed) : 0
Atom jitter error (maybe fixed) : 0
Drift error (maybe fixed) : 0
Dropped bytes error (maybe fixed) : 0
Duplicated bytes error (maybe fixed) : 0
Track 08
Filename : /Users/toydesign/Desktop/whatcd2/Howard Riley: John Tilbury: Keith Tippett/Another Part Of The Story/08 \\Howard Riley, John Tilbury, Keith Tippett - Pow.flac
Pre-gap length : 00:04:00
CRC32 hash (test run) : A3109D45
CRC32 hash : A3109D45
CRC32 hash (skip zero) : 14E3D4CB
AccurateRip signature : AF55DBA5
->Accurately ripped! (confidence 1)
Statistics
Read error : 0
Skipped (treated as error) : 0
Edge jitter error (maybe fixed) : 0
Atom jitter error (maybe fixed) : 0
Drift error (maybe fixed) : 0
Dropped bytes error (maybe fixed) : 0
Duplicated bytes error (maybe fixed) : 0
No errors occurred
End of status report

другие релизы
Any questions -> support@pro-jazz.com. По всем вопросам пишите -> support@pro-jazz.com
18:15
107
Нет комментариев. Ваш будет первым!