Вы используете незарегистрированную версию компонента "Вкладки"!

Поиск

(jazz, avant-garde, free jazz) Wadada Leo Smith and Jack DeJohnette - America (2009), FLAC (tracks+.cue), lossless

Треклист:


Wadada Leo Smith and Jack DeJohnette
America
Жанр:jazz, avant-garde, free jazz
Год выпуска: 2009
Формат: FLAC (tracks+.cue)
Битрейт аудио: lossless
Продолжительность
Источник: ed2k

tracks

1. America Parts 1,2,3
2. Red Trumpet
3. John Brown's Fort
4. Ed Blackwell, The Blue Mountain Sun Drummer
5. Rabi'a's Unconditional Love, A Spiritual Mystery Of The Heart y
6. The Masnavi: The Falcon And The Owls


 
logfile
Exact Audio Copy V0.99 prebeta 4 from 23. January 2008
EAC extraction logfile from 20. May 2009, 20:32
Wadada Leo Smith and Jack DeJohnette / America
Used drive : HL-DT-STDVD-RAM GSA-H50N Adapter: 2 ID: 0
Read mode : Secure
Utilize accurate stream : Yes
Defeat audio cache : Yes
Make use of C2 pointers : No
Read offset correction : 102
Overread into Lead-In and Lead-Out : No
Fill up missing offset samples with silence : Yes
Delete leading and trailing silent blocks : No
Null samples used in CRC calculations : Yes
Used interface : Native Win32 interface for Win NT & 2000
Gap handling : Appended to previous track
Used output format : User Defined Encoder
Selected bitrate : 1024 kBit/s
Quality : High
Add ID3 tag : No
Command line compressor : C:\Program Files\FLAC\flac.exe
Additional command line options : -8 -V -T "ARTIST=%a" -T "TITLE=%t" -T "ALBUM=%g" -T "DATE=%y" -T "TRACKNUMBER=%n" -T "GENRE=%m" -T "COMMENT=EAC FLAC -8" %s
TOC of the extracted CD
Track | Start | Length | Start sector | End sector
---------------------------------------------------------
1 | 0:00.00 | 14:23.11 | 0 | 64735
2 | 14:23.11 | 7:53.22 | 64736 | 100232
3 | 22:16.33 | 5:58.62 | 100233 | 127144
4 | 28:15.20 | 10:12.70 | 127145 | 173114
5 | 38:28.15 | 7:08.30 | 173115 | 205244
6 | 45:36.45 | 7:34.16 | 205245 | 239310
Track 1
Filename C:\EAC Rips\Leo Smith and DeJohnette - America (2009) [FLAC]\01 - America (Parts I-III).wav
Pre-gap length 0:00:02.00
Peak level 97.7 %
Track quality 99.9 %
Test CRC C611C692
Copy CRC C611C692
Track not present in AccurateRip database
Copy OK
Track 2
Filename C:\EAC Rips\Leo Smith and DeJohnette - America (2009) [FLAC]\02 - Red Trumpet.wav
Peak level 97.7 %
Track quality 100.0 %
Test CRC C5CB1B6E
Copy CRC C5CB1B6E
Track not present in AccurateRip database
Copy OK
Track 3
Filename C:\EAC Rips\Leo Smith and DeJohnette - America (2009) [FLAC]\03 - John Brown's Fort.wav
Peak level 97.7 %
Track quality 100.0 %
Test CRC 9E51E7BB
Copy CRC 9E51E7BB
Track not present in AccurateRip database
Copy OK
Track 4
Filename C:\EAC Rips\Leo Smith and DeJohnette - America (2009) [FLAC]\04 - Ed Blackwell, The Blue Mountain Sun Drummer.wav
Peak level 97.7 %
Track quality 100.0 %
Test CRC 1F3DD70A
Copy CRC 1F3DD70A
Track not present in AccurateRip database
Copy OK
Track 5
Filename C:\EAC Rips\Leo Smith and DeJohnette - America (2009) [FLAC]\05 - Rabi'a's Unconditional Love, A Spiritual Mystery of the Heart.wav
Peak level 47.8 %
Track quality 100.0 %
Test CRC 13F65706
Copy CRC 13F65706
Track not present in AccurateRip database
Copy OK
Track 6
Filename C:\EAC Rips\Leo Smith and DeJohnette - America (2009) [FLAC]\06 - The Masnavi, The Falcon and the Owls.wav
Peak level 97.7 %
Track quality 100.0 %
Test CRC E867154E
Copy CRC E867154E
Track not present in AccurateRip database
Copy OK
None of the tracks are present in the AccurateRip database
No errors occurred
End of status report

другие релизы
Any questions -> support@pro-jazz.com. По всем вопросам пишите -> support@pro-jazz.com
11:23
182
Нет комментариев. Ваш будет первым!