Вы используете незарегистрированную версию компонента "Вкладки"!

Поиск

(Avant-Garde Pop, Experimental, Tzadik) Yuka Honda - Memories Are My Only Witness, Eucademix - 2002, 2004 FLAC (tracks+.cue), lossless

(Avant-Garde Pop, Experimental, Tzadik) Yuka Honda - Memories Are My Only Witness, Eucademix - 2002, 2004 FLAC (tracks+.cue), lossless
Треклист:
Yuka HondaЖанр: Avant-Garde Pop, Experimental, Tzadik
Год выпуска диска: 2002, 2004
Производитель диска: US
Аудио кодек: FLAC
Тип рипа: tracks+.cue
Битрейт аудио: lossless
Продолжительность: 1:23:19
2002 - Memories Are My Only Witness
1 Small Circular Motion (1:30)
2 Why Do We Distrust The Machines We Made? (8:06)
3 You Think You Are So Generous, But... (5:05)
4 Driving Down By The Hudson River (0:44)
5 Sun Beam (3:35)
6 Single Silver Bullet (2:40)
7 Some Days I Stay In Bed For Hours (2:00)
8 Schwaltz (4:39)
9 The Last One To Fall Asleep With (3:57)
10 Night Drives (7:39)
11 Liberation #6 - Leaving The Memories Behind (2:45)
Dougie Bowne: Conga Programming
Timo Ellis: Electric Guitar And Bass
Yuka Honda: Drums/sequencer Programming, Keyboard/sampler
Duma Love: Beats, Bass, And Keyboard
Bill Ware: Vibraphone, Piano
 
EAC log
Exact Audio Copy V0.99 prebeta 5 from 4. May 2009
EAC extraction logfile from 23. May 2009, 1:22
Yuka Honda / Memories Are My Only Witness
Used drive : Optiarc DVD RW AD-7560A Adapter: 1 ID: 0
Read mode : Secure
Utilize accurate stream : Yes
Defeat audio cache : Yes
Make use of C2 pointers : No
Read offset correction : 6
Overread into Lead-In and Lead-Out : No
Fill up missing offset samples with silence : Yes
Delete leading and trailing silent blocks : No
Null samples used in CRC calculations : Yes
Used interface : Native Win32 interface for Win NT & 2000
Gap handling : Appended to previous track
Used output format : User Defined Encoder
Selected bitrate : 128 kBit/s
Quality : High
Add ID3 tag : No
Command line compressor : C:\Program Files (x86)\Exact Audio Copy\Flac\flac.exe
Additional command line options : -V -8 -T "artist=%a" -T "title=%t" -T "album=%g" -T "date=%y" -T "tracknumber=%n" -T "genre=%m" %s
TOC of the extracted CD
Track | Start | Length | Start sector | End sector
---------------------------------------------------------
1 | 0:00.00 | 1:29.53 | 0 | 6727
2 | 1:29.53 | 8:06.60 | 6728 | 43237
3 | 9:36.38 | 5:06.07 | 43238 | 66194
4 | 14:42.45 | 0:44.73 | 66195 | 69567
5 | 15:27.43 | 3:36.65 | 69568 | 85832
6 | 19:04.33 | 2:40.03 | 85833 | 97835
7 | 21:44.36 | 2:01.05 | 97836 | 106915
8 | 23:45.41 | 4:41.05 | 106916 | 127995
9 | 28:26.46 | 3:58.15 | 127996 | 145860
10 | 32:24.61 | 7:40.21 | 145861 | 180381
11 | 40:05.07 | 2:45.03 | 180382 | 192759
Track 1
Filename D:\Downloads\Yuka Honda - 2002 - Memories Are My Only Witness [FLAC]\01 - Small Circular Motion.wav
Pre-gap length 0:00:02.00
Peak level 98.8 %
Track quality 100.0 %
Test CRC 925BFD3B
Copy CRC 925BFD3B
Accurately ripped (confidence 5) [260BA2FC]
Copy OK
Track 2
Filename D:\Downloads\Yuka Honda - 2002 - Memories Are My Only Witness [FLAC]\02 - Why Do We Distrust the Machines We Made .wav
Peak level 98.8 %
Track quality 99.9 %
Test CRC 783A30D0
Copy CRC 783A30D0
Accurately ripped (confidence 5) [C2A43E8F]
Copy OK
Track 3
Filename D:\Downloads\Yuka Honda - 2002 - Memories Are My Only Witness [FLAC]\03 - You Think You Are So Generous, But....wav
Peak level 98.8 %
Track quality 100.0 %
Test CRC A94139C3
Copy CRC A94139C3
Accurately ripped (confidence 5) [E075E524]
Copy OK
Track 4
Filename D:\Downloads\Yuka Honda - 2002 - Memories Are My Only Witness [FLAC]\04 - Driving Down By the Hudson River....wav
Pre-gap length 0:00:01.13
Peak level 88.0 %
Track quality 100.0 %
Test CRC 9FBCD617
Copy CRC 9FBCD617
Accurately ripped (confidence 5) [43F6AF8E]
Copy OK
Track 5
Filename D:\Downloads\Yuka Honda - 2002 - Memories Are My Only Witness [FLAC]\05 - Sun Beam....wav
Peak level 98.8 %
Track quality 100.0 %
Test CRC D49C4728
Copy CRC D49C4728
Accurately ripped (confidence 5) [D539C45E]
Copy OK
Track 6
Filename D:\Downloads\Yuka Honda - 2002 - Memories Are My Only Witness [FLAC]\06 - Single Silver Bullet.wav
Pre-gap length 0:00:01.16
Peak level 98.8 %
Track quality 99.9 %
Test CRC F48302CB
Copy CRC F48302CB
Accurately ripped (confidence 5) [563C26C6]
Copy OK
Track 7
Filename D:\Downloads\Yuka Honda - 2002 - Memories Are My Only Witness [FLAC]\07 - Some Days I Stay in Bed For Hours.wav
Peak level 81.0 %
Track quality 100.0 %
Test CRC C84F4011
Copy CRC C84F4011
Accurately ripped (confidence 5) [E27C0507]
Copy OK
Track 8
Filename D:\Downloads\Yuka Honda - 2002 - Memories Are My Only Witness [FLAC]\08 - Schwaltz.wav
Pre-gap length 0:00:01.14
Peak level 98.8 %
Track quality 100.0 %
Test CRC 05491071
Copy CRC 05491071
Accurately ripped (confidence 5) [B57CAD05]
Copy OK
Track 9
Filename D:\Downloads\Yuka Honda - 2002 - Memories Are My Only Witness [FLAC]\09 - The Last One to Fall Asleep With.wav
Pre-gap length 0:00:01.32
Peak level 98.8 %
Track quality 100.0 %
Test CRC 81164E17
Copy CRC 81164E17
Accurately ripped (confidence 5) [0549B7AB]
Copy OK
Track 10
Filename D:\Downloads\Yuka Honda - 2002 - Memories Are My Only Witness [FLAC]\10 - Night Driving.wav
Pre-gap length 0:00:01.02
Peak level 98.8 %
Track quality 100.0 %
Test CRC B987B477
Copy CRC B987B477
Accurately ripped (confidence 5) [33A47C1B]
Copy OK
Track 11
Filename D:\Downloads\Yuka Honda - 2002 - Memories Are My Only Witness [FLAC]\11 - Liberation #6 - Leaving the Memories Behind.wav
Peak level 83.1 %
Track quality 99.9 %
Test CRC 728CC020
Copy CRC 728CC020
Accurately ripped (confidence 5) [FEAE2A08]
Copy OK
All tracks accurately ripped
No errors occurred
End of status report
 
Tzadik
A beautiful CD of quirky instrumentals from the hip mind of Yuka Honda, co-founder of the pop band Cibo Matto. Combining a wry sense of humor with wit, elegance and impeccable taste, Yuka’s charming instrumental miniatures cross all musical borders hypnotizing you with funky breakbeats, heartfelt melodies and nostalgic soundscapes.
Recorded at her home studio and featuring longtime associates Duma Love, Timo Ellis, Bill Ware and Dougie Bowne, this is a breakthrough project for Yuka Honda, who is moving into a new musical universe on the heels of the demise of Cibo Matto.
2004 - Eucademix
1 Humming Song (Alone Together) (3:43)
2 I Dream About You (3:31)
3 When The Monkey Kills (3:25)
4 Limoncello (2:56)
5 Some Things Should Be Kept Unsaid (2:55)
6 Seed Of Seed Of Peach (3:53)
7 Twirling Batons In My Head (2:54)
8 How Many Times Can We Burn This Bridge? (4:07)
9 Parallel (3:04)
10 Why Are You Lying To Your Therapist? (3:34)
11 Phantomime (2:41)
12 Spooning With Jacknife (3:28)
Brandt Abner: Keyboards
Thomas Bartlett: Voices
Trevor Dunn: Bass
Timo Ellis: Guitars, Drums
Petra Haden: Voices
Miho Hatori: Voices
Yuka Honda: Drum Programming, Bass, Guitar, Piano, Keyboards, Sampler, Voices
Japa Keenon: Drum Machine
Phantom: Rain
Marc Ribot: Guitars
 
EAC log
Exact Audio Copy V0.99 prebeta 4 from 23. January 2008
EAC extraction logfile from 9. May 2009, 20:05
Yuka Honda / Eucademix
Used drive : TSSTcorpCD/DVDW TS-H653L Adapter: 0 ID: 2
Read mode : Secure
Utilize accurate stream : Yes
Defeat audio cache : Yes
Make use of C2 pointers : No
Read offset correction : 6
Overread into Lead-In and Lead-Out : No
Fill up missing offset samples with silence : Yes
Delete leading and trailing silent blocks : No
Null samples used in CRC calculations : Yes
Used interface : Native Win32 interface for Win NT & 2000
Gap handling : Appended to previous track
Used output format : User Defined Encoder
Selected bitrate : 128 kBit/s
Quality : High
Add ID3 tag : No
Command line compressor : C:\Program Files\FLAC\flac.exe
Additional command line options : -V -8 -T "artist=%a" -T "title=%t" -T "album=%g" -T "date=%y" -T "tracknumber=%n" -T "genre=%m" %s
TOC of the extracted CD
Track | Start | Length | Start sector | End sector
---------------------------------------------------------
1 | 0:00.00 | 3:44.15 | 0 | 16814
2 | 3:44.15 | 3:33.17 | 16815 | 32806
3 | 7:17.32 | 3:26.12 | 32807 | 48268
4 | 10:43.44 | 2:57.19 | 48269 | 61562
5 | 13:40.63 | 2:57.45 | 61563 | 74882
6 | 16:38.33 | 3:53.38 | 74883 | 92395
7 | 20:31.71 | 2:55.32 | 92396 | 105552
8 | 23:27.28 | 4:08.27 | 105553 | 124179
9 | 27:35.55 | 3:06.56 | 124180 | 138185
10 | 30:42.36 | 3:36.50 | 138186 | 154435
11 | 34:19.11 | 2:42.32 | 154436 | 166617
12 | 37:01.43 | 3:27.56 | 166618 | 182198
Track 1
Filename D:\All things Kebin II\Downloads\__EAC LOGS__\Yuka Honda - Eucademix\01 - Humming Song (Alone Together).wav
Pre-gap length 0:00:02.00
Peak level 98.8 %
Track quality 100.0 %
Test CRC E71FE2A6
Copy CRC E71FE2A6
Accurately ripped (confidence 2) [FC18FE06]
Copy OK
Track 2
Filename D:\All things Kebin II\Downloads\__EAC LOGS__\Yuka Honda - Eucademix\02 - I Dream About You.wav
Pre-gap length 0:00:01.30
Peak level 98.8 %
Track quality 100.0 %
Test CRC 92AD9BF0
Copy CRC 92AD9BF0
Accurately ripped (confidence 2) [7F8A237F]
Copy OK
Track 3
Filename D:\All things Kebin II\Downloads\__EAC LOGS__\Yuka Honda - Eucademix\03 - When The Monkey Kills.wav
Pre-gap length 0:00:02.44
Peak level 98.8 %
Track quality 100.0 %
Test CRC 7AE22F90
Copy CRC 7AE22F90
Accurately ripped (confidence 2) [CD8B6365]
Copy OK
Track 4
Filename D:\All things Kebin II\Downloads\__EAC LOGS__\Yuka Honda - Eucademix\04 - Limoncello.wav
Pre-gap length 0:00:01.64
Peak level 98.8 %
Track quality 100.0 %
Test CRC 96951F11
Copy CRC 96951F11
Accurately ripped (confidence 2) [90F41579]
Copy OK
Track 5
Filename D:\All things Kebin II\Downloads\__EAC LOGS__\Yuka Honda - Eucademix\05 - Some Things Should Be Kept Unsaid.wav
Pre-gap length 0:00:01.61
Peak level 98.8 %
Track quality 100.0 %
Test CRC 9C84E827
Copy CRC 9C84E827
Accurately ripped (confidence 2) [B400C9C2]
Copy OK
Track 6
Filename D:\All things Kebin II\Downloads\__EAC LOGS__\Yuka Honda - Eucademix\06 - Seed Of Seed Of Peach.wav
Pre-gap length 0:00:02.62
Peak level 98.8 %
Track quality 100.0 %
Test CRC 26EDAA88
Copy CRC 26EDAA88
Accurately ripped (confidence 2) [AD33B783]
Copy OK
Track 7
Filename D:\All things Kebin II\Downloads\__EAC LOGS__\Yuka Honda - Eucademix\07 - Twirling Batons In My Head.wav
Pre-gap length 0:00:00.96
Peak level 98.8 %
Track quality 100.0 %
Test CRC D578CC43
Copy CRC D578CC43
Accurately ripped (confidence 2) [734BF510]
Copy OK
Track 8
Filename D:\All things Kebin II\Downloads\__EAC LOGS__\Yuka Honda - Eucademix\08 - How Many Times Can We Burn This Bridge .wav
Pre-gap length 0:00:01.01
Peak level 98.8 %
Track quality 99.9 %
Test CRC 632C824F
Copy CRC 632C824F
Accurately ripped (confidence 2) [D46B1993]
Copy OK
Track 9
Filename D:\All things Kebin II\Downloads\__EAC LOGS__\Yuka Honda - Eucademix\09 - Parallel.wav
Pre-gap length 0:00:01.29
Peak level 98.8 %
Track quality 100.0 %
Test CRC A44DE960
Copy CRC A44DE960
Accurately ripped (confidence 2) [3F0D2B78]
Copy OK
Track 10
Filename D:\All things Kebin II\Downloads\__EAC LOGS__\Yuka Honda - Eucademix\10 - Why Are You Lying To Your Therapist .wav
Pre-gap length 0:00:02.42
Peak level 98.8 %
Track quality 100.0 %
Test CRC D967AE00
Copy CRC D967AE00
Accurately ripped (confidence 2) [D804F2F5]
Copy OK
Track 11
Filename D:\All things Kebin II\Downloads\__EAC LOGS__\Yuka Honda - Eucademix\11 - Phantomime.wav
Pre-gap length 0:00:02.66
Peak level 98.8 %
Track quality 100.0 %
Test CRC A411F776
Copy CRC A411F776
Accurately ripped (confidence 2) [E28DDDB7]
Copy OK
Track 12
Filename D:\All things Kebin II\Downloads\__EAC LOGS__\Yuka Honda - Eucademix\12 - Spooning With Jackknife.wav
Pre-gap length 0:00:01.44
Peak level 98.8 %
Track quality 100.0 %
Test CRC FAE0B8CF
Copy CRC FAE0B8CF
Accurately ripped (confidence 2) [8FDF9141]
Copy OK
All tracks accurately ripped
No errors occurred
End of status report
 
Tzadik
Eleven moody, funky, jazzy compositions from Yuka Honda, a founding member of the popular band Cibo Matto and a vital member of the Downtown scene since moving to NY from Tokyo in 1987. Her second CD for the Oracles Series is her best yet, featuring her soulful lyricism and hip break beats augmented by distinguished guest musicians like vocalists Petra Haden and Miho Hatori, instrumentalists Marc Ribot, Trevor Dunn and a host of others. Eucademix is an intimate journey through the mind and heart of one of the most honest and original musicians working in experimental pop today.
Any questions -> support@pro-jazz.com. По всем вопросам пишите -> support@pro-jazz.com
11:22
187
Нет комментариев. Ваш будет первым!