Вы используете незарегистрированную версию компонента "Вкладки"!

Поиск

(jazz, avant-garde, free jazz) Kidd Jordan, Hamid Drake, William Parker - Palm of Soul 2006, FLAC (tracks+.cue), lossless

(jazz, avant-garde, free jazz) Kidd Jordan, Hamid Drake, William Parker - Palm of Soul 2006, FLAC (tracks+.cue), lossless
Треклист:


Kidd Jordan, Hamid Drake, William Parker - Palm of Soul
Жанр:jazz, avant-garde, free jazz
Год выпуска: 2006
Формат: FLAC (tracks+.cue)
Битрейт аудио: lossless
Продолжительность
Источник: ed2k
Personnel:
Kidd Jordan: tenor saxophone
William Parker: bass, guimbri, gongs, bowls, talking drum
Hamid Drake: drums, tablas, frame drum, voice

tracks

1. Pepperment Falls
2. Forever
3. Living Peace
4. Unity Call
5. So Often
6. Resolution
7. Last of the Chicken Wings


 
logfile
X Lossless Decoder version 20090320 (105.1)
XLD extraction logfile from 2009-08-15 12:43:39 -0700
Kidd Jordan / Palm of Soul
Used drive : MATSHITA DVD-R UJ-867 (revision HA13)
Use cdparanoia mode : YES (CDParanoia III 10.2 engine)
Disable audio cache : OK for the drive with cache less than 2750KB
Make use of C2 pointers : NO
Read offset correction : 102
Max retry count : 100
TOC of the extracted CD
Track | Start | Length | Start sector | End sector
---------------------------------------------------------
1 | 00:00:00 | 00:58:56 | 0 | 4405
2 | 00:58:56 | 08:24:29 | 4406 | 42234
3 | 09:23:10 | 14:57:74 | 42235 | 109583
4 | 24:21:09 | 10:21:14 | 109584 | 156172
5 | 34:42:23 | 02:22:10 | 156173 | 166832
6 | 37:04:33 | 05:42:59 | 166833 | 192541
7 | 42:47:17 | 12:01:60 | 192542 | 246676
Track 01
Filename : /Users/thomasshea/Desktop/Kidd Jordan:Hamid Drake:William Parker - Palm of Soul [FLAC]/01 Kidd Jordan - Peppermint Falls.flac
CRC32 hash (test run) : 716CBCC0
CRC32 hash : 716CBCC0
CRC32 hash (skip zero) : 8C40AEE7
AccurateRip signature : F7519F26
->Track not present in AccurateRip database.
Statistics
Read error : 0
Skipped (treated as error) : 0
Edge jitter error (maybe fixed) : 0
Atom jitter error (maybe fixed) : 0
Drift error (maybe fixed) : 0
Dropped bytes error (maybe fixed) : 0
Duplicated bytes error (maybe fixed) : 0
Track 02
Filename : /Users/thomasshea/Desktop/Kidd Jordan:Hamid Drake:William Parker - Palm of Soul [FLAC]/02 Kidd Jordan - Forever.flac
CRC32 hash (test run) : 4F279644
CRC32 hash : 4F279644
CRC32 hash (skip zero) : CA2E5F8E
AccurateRip signature : 5743C36F
->Track not present in AccurateRip database.
Statistics
Read error : 0
Skipped (treated as error) : 0
Edge jitter error (maybe fixed) : 0
Atom jitter error (maybe fixed) : 0
Drift error (maybe fixed) : 0
Dropped bytes error (maybe fixed) : 0
Duplicated bytes error (maybe fixed) : 0
Track 03
Filename : /Users/thomasshea/Desktop/Kidd Jordan:Hamid Drake:William Parker - Palm of Soul [FLAC]/03 Kidd Jordan - Living Peace.flac
CRC32 hash (test run) : DFFB4790
CRC32 hash : DFFB4790
CRC32 hash (skip zero) : E9075EDB
AccurateRip signature : 4A914BFB
->Track not present in AccurateRip database.
Statistics
Read error : 0
Skipped (treated as error) : 0
Edge jitter error (maybe fixed) : 0
Atom jitter error (maybe fixed) : 0
Drift error (maybe fixed) : 0
Dropped bytes error (maybe fixed) : 0
Duplicated bytes error (maybe fixed) : 0
Track 04
Filename : /Users/thomasshea/Desktop/Kidd Jordan:Hamid Drake:William Parker - Palm of Soul [FLAC]/04 Kidd Jordan - Unity Call.flac
CRC32 hash (test run) : 327D7F8A
CRC32 hash : 327D7F8A
CRC32 hash (skip zero) : 9785FAA6
AccurateRip signature : 329B3E04
->Track not present in AccurateRip database.
Statistics
Read error : 0
Skipped (treated as error) : 0
Edge jitter error (maybe fixed) : 0
Atom jitter error (maybe fixed) : 0
Drift error (maybe fixed) : 0
Dropped bytes error (maybe fixed) : 0
Duplicated bytes error (maybe fixed) : 0
Track 05
Filename : /Users/thomasshea/Desktop/Kidd Jordan:Hamid Drake:William Parker - Palm of Soul [FLAC]/05 Kidd Jordan - So Often.flac
CRC32 hash (test run) : 0AFC7518
CRC32 hash : 0AFC7518
CRC32 hash (skip zero) : D250808C
AccurateRip signature : 4A3574A1
->Track not present in AccurateRip database.
Statistics
Read error : 0
Skipped (treated as error) : 0
Edge jitter error (maybe fixed) : 0
Atom jitter error (maybe fixed) : 0
Drift error (maybe fixed) : 0
Dropped bytes error (maybe fixed) : 0
Duplicated bytes error (maybe fixed) : 0
Track 06
Filename : /Users/thomasshea/Desktop/Kidd Jordan:Hamid Drake:William Parker - Palm of Soul [FLAC]/06 Kidd Jordan - Resolution.flac
CRC32 hash (test run) : BBB3C5FF
CRC32 hash : BBB3C5FF
CRC32 hash (skip zero) : C0FA5FAE
AccurateRip signature : 65BA9666
->Track not present in AccurateRip database.
Statistics
Read error : 0
Skipped (treated as error) : 0
Edge jitter error (maybe fixed) : 0
Atom jitter error (maybe fixed) : 0
Drift error (maybe fixed) : 0
Dropped bytes error (maybe fixed) : 0
Duplicated bytes error (maybe fixed) : 0
Track 07
Filename : /Users/thomasshea/Desktop/Kidd Jordan:Hamid Drake:William Parker - Palm of Soul [FLAC]/07 Kidd Jordan - Last of the Chicken Wings.flac
CRC32 hash (test run) : 087CDF94
CRC32 hash : 087CDF94
CRC32 hash (skip zero) : 71282908
AccurateRip signature : F02513DF
->Track not present in AccurateRip database.
Statistics
Read error : 0
Skipped (treated as error) : 0
Edge jitter error (maybe fixed) : 0
Atom jitter error (maybe fixed) : 0
Drift error (maybe fixed) : 0
Dropped bytes error (maybe fixed) : 0
Duplicated bytes error (maybe fixed) : 0
No errors occurred
End of status report

другие релизы
Any questions -> support@pro-jazz.com. По всем вопросам пишите -> support@pro-jazz.com
14:18
171
Нет комментариев. Ваш будет первым!