Вы используете незарегистрированную версию компонента "Вкладки"!

Поиск

(jazz, avant-garde, free jazz) Albert Mangelsdorff & John Surman - ROOM 1220 [1993] , FLAC (tracks+.cue), lossless

(jazz, avant-garde, free jazz) Albert Mangelsdorff & John Surman - ROOM 1220 [1993] , FLAC (tracks+.cue), lossless
Треклист:


Albert Mangelsdorff & John Surman - ROOM 1220
Жанр: jazz, avant-garde, free jazz
Год выпуска: 1993
Формат: FLAC (tracks+.cue)
Битрейт аудио: lossless
Продолжительность
Источник: ed2k
*Eddie Louis: Organ, Piano
*Albert Mangelsdorff: Trombone, Main Performer
*John Surman: Sax (Baritone)
*Daniel Humair: Drums
*Niels-Henning Oersted Pedersen: bass
Release Date: 1993
Label: Konnex

tracks

01.- Room 1220
02.- Triple Circle
03.- My Kind of Beauty


 
logfile
Exact Audio Copy V0.99 prebeta 4 from 23. January 2008
EAC extraction logfile from 14. January 2009, 22:10
Albert Mangelsdorff & John Surman / Room 1220
Used drive : Optiarc DVD RW AD-7200A Adapter: 0 ID: 3
Read mode : Secure
Utilize accurate stream : Yes
Defeat audio cache : Yes
Make use of C2 pointers : No
Read offset correction : 48
Overread into Lead-In and Lead-Out : No
Fill up missing offset samples with silence : Yes
Delete leading and trailing silent blocks : No
Null samples used in CRC calculations : Yes
Used interface : Installed external ASPI interface
Gap handling : Appended to previous track
Used output format : User Defined Encoder
Selected bitrate : 640 kBit/s
Quality : High
Add ID3 tag : No
Command line compressor : C:\Program Files\Exact Audio Copy\flac.exe
Additional command line options : • -8 -A tukey(0.25) -A gauss(0.1875) -b 4096 -V -T "artist=%a" -T "title=%t" -T "album=%g" -T "date=%y" -T "tracknumber=%n" -T "genre=%m" %s --sector-align
TOC of the extracted CD
Track | Start | Length | Start sector | End sector
---------------------------------------------------------
1 | 0:00.00 | 22:04.00 | 0 | 99299
2 | 22:04.00 | 8:33.47 | 99300 | 137821
3 | 30:37.47 | 12:46.08 | 137822 | 195279
Track 1
Filename H:\Albert Mangelsdorff & John Surman - ROOM 1220\01 - Albert Mangelsdorff & John Surman - Room 1220 .wav
Pre-gap length 0:00:02.00
Peak level 89.0 %
Track quality 100.0 %
Test CRC B73DC8CE
Copy CRC B73DC8CE
Track not present in AccurateRip database
Copy OK
Track 2
Filename H:\Albert Mangelsdorff & John Surman - ROOM 1220\02 - Albert Mangelsdorff & John Surman - Triplet Circle .wav
Pre-gap length 0:00:04.96
Peak level 82.6 %
Track quality 100.0 %
Test CRC F4C46D9C
Copy CRC F4C46D9C
Track not present in AccurateRip database
Copy OK
Track 3
Filename H:\Albert Mangelsdorff & John Surman - ROOM 1220\03 - Albert Mangelsdorff & John Surman - My Kind of Beauty .wav
Pre-gap length 0:00:04.88
Peak level 78.5 %
Track quality 99.9 %
Test CRC A437B2EE
Copy CRC A437B2EE
Track not present in AccurateRip database
Copy OK
None of the tracks are present in the AccurateRip database
No errors occurred
End of status report

другие релизы
Any questions -> support@pro-jazz.com. По всем вопросам пишите -> support@pro-jazz.com
11:33
186
Нет комментариев. Ваш будет первым!