Вы используете незарегистрированную версию компонента "Вкладки"!

Поиск

2004 Kahil El'Zabar's Trio ft. Billy Bang - Live At The River East Art Center [CD]

2004 Kahil El'Zabar's Trio ft. Billy Bang - Live At The River East Art Center [CD]
Треклист:
Жанр: Free Jazz, Avant-Garde Jazz, African Jazz
Дата записи: December 18, 2004
Дата выпуска: May 17, 2005
Производитель диска, страна: Delmark Records, DE-566
Тип: Live
Аудио кодек: FLAC
Тип рипа: (tracks + .cue)
Битрейт аудио: lossless
Включает: Full artwork
Продолжительность: 1:07:19
Источник: коллекция Л.Рендера
Риппер: Мой рип
Трэклист:
1. BIG M 18:42
2. RETURN OF THE LOST TRIBE 12:50
3. WHERE DO YOU WANT TO GO? 12:22
4. BE EXCITING (KAHIL TESTIFIES) 4:39
5. OOF 16:00
Об исполнителе:
Очень часто за авангардный джаз выдают беспорядочное бряцканье по клавишам и другим многострадальным инструментам. И не надо никаких отсылок к творчеству Штокгаузена и паралелей с Кейджем, Пендерецким или Шнитке. Нет его там, да и все! Эх, перечислить бы таких музыкантов. И совсем ничтожных, и людей солидных, с именем. Да стоит ли?
Вот перед нами диск людей, которые НИКОГДА не были замешаны в подобной лаже. Никогда не изменяли музыке, стилистически определенной как фри – джаз. Ritual Trio возглавляемое Kahil El’Zabar уже в течении многих лет играет прекрасный фри – джаз в густой этно- окраске. Прекрасные, бескомпромиссные альбомы этого коллектива считаются жемчужиной любой фри – джазовой коллекции. (st52.narod.ru)
Об альбоме:
All compositions by Kahil El'Zabar
Also available on DVD in Surround Sound (Delmark DVD 1566)
http://allmusic.com/cg/amg.dll?p=amg&sql=10:wxfuxqqsld0e
Состав:
KAHIL EL'ZABAR - kalimba, drums, percussion
ARI BROWN - tenor sax
YOSEF BEN ISRAEL - bass
BILLY BANG - electric violin
 
Несколько слов на английском
Here is the intuitively collaborative band of percussionist Kahil El'Zabar, with Chicago's secret star saxophonist Ari Brown, bassist Yosef Ben Israel (new in the chair formerly held by the late, great Malachi Favors), and inimitable jazz violinist Billy Bang. This is a jazz loft party of the early 21st century which you've been invited to. LIve at the river east ART center is more than a CD; it transcends date and place, dissolves biases about music and genre, touches something within those who come close. Enjoy it yourself, or feel free, quite free, to add your own loving crowd. Complete notes enclosed by Howard Mandel.
 
 
Noncompliant Cue
REM GENRE Jazz
REM DATE 2004
REM DISCID 370FC705
REM COMMENT "ExactAudioCopy v0.95b4"
PERFORMER "Kahil El'Zabar's Trio Featuring Billy Bang"
TITLE "Live At The River East Art Center"
FILE "01 - Big M.wav" WAVE
  TRACK 01 AUDIO
    TITLE "Big M"
    PERFORMER "Kahil El'Zabar's Trio Featuring Billy Bang"
    INDEX 01 00:00:00
FILE "02 - Return Of The Lost Tribe.wav" WAVE
  TRACK 02 AUDIO
    TITLE "Return Of The Lost Tribe"
    PERFORMER "Kahil El'Zabar's Trio Featuring Billy Bang"
    INDEX 01 00:00:00
FILE "03 - Where Do You Want To Go .wav" WAVE
  TRACK 03 AUDIO
    TITLE "Where Do You Want To Go?"
    PERFORMER "Kahil El'Zabar's Trio Featuring Billy Bang"
    INDEX 01 00:00:00
FILE "04 - Be Exciting (Kahil Testifies).wav" WAVE
  TRACK 04 AUDIO
    TITLE "Be Exciting (Kahil Testifies)"
    PERFORMER "Kahil El'Zabar's Trio Featuring Billy Bang"
    INDEX 01 00:00:00
FILE "05 - Oof.wav" WAVE
  TRACK 05 AUDIO
    TITLE "Oof"
    PERFORMER "Kahil El'Zabar's Trio Featuring Billy Bang"
    INDEX 01 00:00:00
 
 
CD scan
 
 
 
EAC log
EAC extraction logfile from 18. May 2008, 9:24 for CD
Kahil El'Zabar's Trio Featuring Billy Bang / Live At The River East Art Center
Used drive  : PIONEER DVD-RW  DVR-112D   Adapter: 0  ID: 0
Read mode   : Secure with NO C2, accurate stream, disable cache
Read offset correction : 48
Overread into Lead-In and Lead-Out : No
Used output format : C:\Program Files\FLAC\flac.exe   (User Defined Encoder)
                     320 kBit/s
                     Additional command line options : -8 -V -T "ARTIST=%a" -T "TITLE=%t" -T "ALBUM=%g" -T "DATE=%y" -T "TRACKNUMBER=%n" -T "GENRE=%m" -T "COMMENT=EAC FLAC -8" %s
Other options      :
    Fill up missing offset samples with silence : Yes
    Delete leading and trailing silent blocks : No
    Installed external ASPI interface
Track  1
     Filename D:\music\rip\Kahil El'Zabar's Trio Featuring Billy Bang - Live At The River East Art Center (2004) [FLAC]\01 - Big M.wav
     Pre-gap length  0:00:02.00
     Peak level 98.8 %
     Track quality 100.0 %
     Test CRC E78188E8
     Copy CRC E78188E8
     Copy OK
Track  2
     Filename D:\music\rip\Kahil El'Zabar's Trio Featuring Billy Bang - Live At The River East Art Center (2004) [FLAC]\02 - Return Of The Lost Tribe.wav
     Peak level 98.8 %
     Track quality 99.9 %
     Test CRC CFE06FB5
     Copy CRC CFE06FB5
     Copy OK
Track  3
     Filename D:\music\rip\Kahil El'Zabar's Trio Featuring Billy Bang - Live At The River East Art Center (2004) [FLAC]\03 - Where Do You Want To Go .wav
     Peak level 98.8 %
     Track quality 99.9 %
     Test CRC 00CC344E
     Copy CRC 00CC344E
     Copy OK
Track  4
     Filename D:\music\rip\Kahil El'Zabar's Trio Featuring Billy Bang - Live At The River East Art Center (2004) [FLAC]\04 - Be Exciting (Kahil Testifies).wav
     Peak level 98.0 %
     Track quality 100.0 %
     Test CRC BEE75B49
     Copy CRC BEE75B49
     Copy OK
Track  5
     Filename D:\music\rip\Kahil El'Zabar's Trio Featuring Billy Bang - Live At The River East Art Center (2004) [FLAC]\05 - Oof.wav
     Peak level 98.8 %
     Track quality 100.0 %
     Test CRC 7E85A051
     Copy CRC 7E85A051
     Copy OK
No errors occured
End of status report
 
 
auCDtect log
1594153768 216442844 01 - Big M.wav
3632156763 138469340 02 - Return Of The Lost Tribe.wav
1891941689 134249852 03 - Where Do You Want To Go .wav
2397788926 49225052 04 - Be Exciting (Kahil Testifies).wav
850189506 174120956 05 - Oof.wav
auCDtect: CD records authenticity detector, version 0.8.2
Copyright (c) 2004 Oleg Berngardt. All rights reserved.
Copyright (c) 2004 Alexander Djourik. All rights reserved.
------------------------------------------------------------
Processing file: [01 - Big M.wav]
------------------------------------------------------------
This track looks like CDDA with probability 100%
------------------------------------------------------------
Processing file: [02 - Return Of The Lost Tribe.wav]
------------------------------------------------------------
This track looks like CDDA with probability 100%
------------------------------------------------------------
Processing file: [03 - Where Do You Want To Go .wav]
------------------------------------------------------------
This track looks like CDDA with probability 100%
------------------------------------------------------------
Processing file: [04 - Be Exciting (Kahil Testifies).wav]
------------------------------------------------------------
This track looks like CDDA with probability 100%
------------------------------------------------------------
Processing file: [05 - Oof.wav]
------------------------------------------------------------
This track looks like CDDA with probability 99%
------------------------------------------------------------
Final Conclusion:
------------------------------------------------------------
These tracks looks like CDDA with probability 100%
Я не сидирую все свои раздачи подолгу, только новые (до 3х первых сидов)
Предлагаю скачавшим максимально долго оставаться на раздаче - весь рейтинг будет ваш
Если нет сидов или раздача находится в архиве, пришлите письмо, и я вернусь
Заботьтесь о своем рейтинге - приветствуется конвертация моих раздач в мп3 и выкладывание в соотвтствующем разделе
Any questions -> support@pro-jazz.com. По всем вопросам пишите -> support@pro-jazz.com
11:33
186
Нет комментариев. Ваш будет первым!