Вы используете незарегистрированную версию компонента "Вкладки"!

Поиск

(jazz, avant-garde, contemporary) Bugge Wesseltoft - Playing - 2009, FLAC (image+.cue), lossless

(jazz, avant-garde, contemporary) Bugge Wesseltoft - Playing - 2009, FLAC (image+.cue), lossless
Треклист:
Bugge Wesseltoft - Playing
Жанр: jazz, avant-garde, contemporary
Год выпуска диска: 2009
Производитель диска: JAZZLAND
Аудио кодек: FLAC
Тип рипа: image+.cue
Битрейт аудио: lossless
Продолжительность: 57:40
Трэклист:
01. playing
02. dreaming
03. singing
04. takes
05. talking to myself
06. talking to myself II
07. rythme
08. hands
09. many rivers to cross
Bugge Wesseltoft: piano, voices, percussion and other...
 
Отчёт EAC
Exact Audio Copy V0.99 prebeta 4 from 23. January 2008
Отчёт EAC об извлечении, выполненном 6. марта 2009, 20:18
bugge weselltoft / playing
Дисковод: Optiarc DVD RW AD-7191S Adapter: 1 ID: 0
Режим чтения : Достоверность
Использование точного потока : Да
Отключение кэша аудио : Да
Использование указателей C2 : Нет
Коррекция смещения при чтении : 6
Способность читать области Lead-in и Lead-out : Нет
Заполнение пропущенных сэмплов тишиной : Да
Удаление блоков с тишиной в начале и конце : Нет
При вычислениях CRC использовались нулевые сэмплы : Да
Интерфейс : Встроенный Win32-интерфейс для Win NT/2000
Выходной формат : Пользовательский кодировщик
Выбранный битрейт : 768 kBit/s
Качество : Высокий
Добавление ID3-тэга : Нет
Утилита сжатия : C:\Program Files\Exact Audio Copy\FLAC\FLAC.EXE
Дополнительные параметры : -6 -V -T "ARTIST=%a" -T "TITLE=%t" -T "ALBUM=%g" -T "DATE=%y" -T "TRACKNUMBER=%n" -T "GENRE=%m" -T "COMMENT=%e" %s -o %d
TOC извлечённого CD
Трек | Старт | Длительность | Начальный сектор | Конечный сектор
---------------------------------------------------------------------
1 | 0:00.00 | 5:35.70 | 0 | 25194
2 | 5:35.70 | 6:22.39 | 25195 | 53883
3 | 11:58.34 | 5:46.72 | 53884 | 79905
4 | 17:45.31 | 5:35.39 | 79906 | 105069
5 | 23:20.70 | 13:00.02 | 105070 | 163571
6 | 36:20.72 | 7:08.30 | 163572 | 195701
7 | 43:29.27 | 4:45.72 | 195702 | 217148
8 | 48:15.24 | 5:23.11 | 217149 | 241384
9 | 53:38.35 | 4:02.29 | 241385 | 259563
Характеристики диапазона извлечения и сообщения об ошибках
Выбранный диапазон
Имя файла F:\U-TORRENT\Bugge Weselltoft - Playing\bugge weselltoft - playing.wav
Пиковый уровень 100.0 %
Качество диапазона 100.0 %
CRC копии 07A4F49E
Копирование... OK
Ошибок не произошло
AccurateRip: сводка
Трек 1 нет в базе данных
Трек 2 нет в базе данных
Трек 3 нет в базе данных
Трек 4 нет в базе данных
Трек 5 нет в базе данных
Трек 6 нет в базе данных
Трек 7 нет в базе данных
Трек 8 нет в базе данных
Трек 9 нет в базе данных
Ни одного трека нет в базе AccurateRip
Конец отчёта
Any questions -> support@pro-jazz.com. По всем вопросам пишите -> support@pro-jazz.com
08:57
328
Нет комментариев. Ваш будет первым!