Вы используете незарегистрированную версию компонента "Вкладки"!

Поиск

(Avant-Garde Jazz / Metal) Zu - Carboniferous - 2009, FLAC (tracks+.cue), lossless

(Avant-Garde Jazz / Metal) Zu - Carboniferous - 2009, FLAC (tracks+.cue), lossless
Треклист:
Zu - Carboniferous
Жанр: Avant-Garde Jazz / Metal
Год выпуска диска: 2009
Производитель диска: Ipecac
Аудио кодек: FLAC
Тип рипа: tracks+.cue
Битрейт аудио: lossless
Продолжительность: 00:50:11
Трэклист:
01. Ostia
02. Chthonian
03. Carbon
04. Beata Viscera
05. Erineys
06. Soulympics (feat. Mike Patton)
07. Axion
08. Mimosa Hostilis
09. Obsidian
10. Orc (feat. Mike Patton)
Состав:
Luca T. Mai — baritone sax
Massimo Pupillo — bass
Jacopo Battaglia — drums
+
Mike Patton — voice (6,10), electronics
King Buzzo — guitar
 
Exact Audio Copy
Exact Audio Copy V0.99 prebeta 5 from 4. May 2009
EAC extraction logfile from 30. June 2009, 23:19
Zu / Carboniferous
Used drive : SATA-DVDDROM6316 Adapter: 1 ID: 1
Read mode : Secure
Utilize accurate stream : Yes
Defeat audio cache : Yes
Make use of C2 pointers : No
Read offset correction : 6
Overread into Lead-In and Lead-Out : No
Fill up missing offset samples with silence : Yes
Delete leading and trailing silent blocks : No
Null samples used in CRC calculations : Yes
Used interface : Native Win32 interface for Win NT & 2000
Gap handling : Appended to previous track
Used output format : User Defined Encoder
Selected bitrate : 128 kBit/s
Quality : High
Add ID3 tag : No
Command line compressor : C:\Program Files\Exact Audio Copy\Flac\flac.exe
Additional command line options : -V -8 -T "artist=%a" -T "title=%t" -T "album=%g" -T "date=%y" -T "tracknumber=%n" -T "genre=%m" %s
TOC of the extracted CD
Track | Start | Length | Start sector | End sector
---------------------------------------------------------
1 | 0:00.00 | 4:55.35 | 0 | 22159
2 | 4:55.35 | 6:48.11 | 22160 | 52770
3 | 11:43.46 | 4:24.11 | 52771 | 72581
4 | 16:07.57 | 3:57.56 | 72582 | 90412
5 | 20:05.38 | 3:43.04 | 90413 | 107141
6 | 23:48.42 | 5:05.43 | 107142 | 130059
7 | 28:54.10 | 5:21.32 | 130060 | 154166
8 | 34:15.42 | 4:09.33 | 154167 | 172874
9 | 38:25.00 | 6:29.22 | 172875 | 202071
10 | 44:54.22 | 5:20.12 | 202072 | 226083
Track 1
Filename L:\FLAC rips 09\Zu - 2009 - Carboniferous\01 - Ostia.wav
Pre-gap length 0:00:02.00
Peak level 100.0 %
Track quality 100.0 %
Test CRC E5053AE5
Copy CRC E5053AE5
Accurately ripped (confidence 5) [2467EA9C]
Copy OK
Track 2
Filename L:\FLAC rips 09\Zu - 2009 - Carboniferous\02 - Chthonian.wav
Pre-gap length 0:00:00.49
Peak level 100.0 %
Track quality 100.0 %
Test CRC 4FCE59EE
Copy CRC 4FCE59EE
Accurately ripped (confidence 4) [9DD733A0]
Copy OK
Track 3
Filename L:\FLAC rips 09\Zu - 2009 - Carboniferous\03 - Carbon.wav
Pre-gap length 0:00:01.21
Peak level 100.0 %
Track quality 100.0 %
Test CRC E2385AD6
Copy CRC E2385AD6
Accurately ripped (confidence 5) [2592FDB5]
Copy OK
Track 4
Filename L:\FLAC rips 09\Zu - 2009 - Carboniferous\04 - Beata Viscera.wav
Pre-gap length 0:00:01.77
Peak level 100.0 %
Track quality 99.9 %
Test CRC 68D9CBC7
Copy CRC 68D9CBC7
Accurately ripped (confidence 4) [114A783B]
Copy OK
Track 5
Filename L:\FLAC rips 09\Zu - 2009 - Carboniferous\05 - Erinys.wav
Peak level 100.0 %
Track quality 100.0 %
Test CRC D15E267C
Copy CRC D15E267C
Accurately ripped (confidence 4) [D71FE8A1]
Copy OK
Track 6
Filename L:\FLAC rips 09\Zu - 2009 - Carboniferous\06 - Soulympics.wav
Pre-gap length 0:00:00.38
Peak level 98.8 %
Track quality 100.0 %
Test CRC F5AD93CD
Copy CRC F5AD93CD
Accurately ripped (confidence 4) [96A69999]
Copy OK
Track 7
Filename L:\FLAC rips 09\Zu - 2009 - Carboniferous\07 - Axion.wav
Pre-gap length 0:00:00.73
Peak level 100.0 %
Track quality 99.9 %
Test CRC E10CED23
Copy CRC E10CED23
Accurately ripped (confidence 4) [9B841F59]
Copy OK
Track 8
Filename L:\FLAC rips 09\Zu - 2009 - Carboniferous\08 - Mimosa Hostilis.wav
Peak level 98.8 %
Track quality 100.0 %
Test CRC 238D6B9A
Copy CRC 238D6B9A
Accurately ripped (confidence 4) [622B2B4E]
Copy OK
Track 9
Filename L:\FLAC rips 09\Zu - 2009 - Carboniferous\09 - Obsidian.wav
Pre-gap length 0:00:01.77
Peak level 100.0 %
Track quality 100.0 %
Test CRC 94C0BF55
Copy CRC 94C0BF55
Accurately ripped (confidence 4) [152C94E3]
Copy OK
Track 10
Filename L:\FLAC rips 09\Zu - 2009 - Carboniferous\10 - Orc.wav
Peak level 100.0 %
Track quality 100.0 %
Test CRC F97B54A0
Copy CRC F97B54A0
Accurately ripped (confidence 4) [554AD482]
Copy OK
All tracks accurately ripped
No errors occurred
End of status report
 
audiochecker log
AUDIOCHECKER v2.0 beta (build 457) - by Dester - opdester@freemail.hu
~~~~~~~~~~~~~~~~~~~~~~~~~~~~~~~~~~
-=== DO NOT EDIT THIS FILE! ===-
Path: ...\Zu - 2009 - Carboniferous [FLAC]
01 -=- 01 - Ostia.flac -=- CDDA (100%)
02 -=- 02 - Chthonian.flac -=- CDDA (99%)
03 -=- 03 - Carbon.flac -=- CDDA (100%)
04 -=- 04 - Beata Viscera.flac -=- CDDA (100%)
05 -=- 05 - Erinys.flac -=- CDDA (100%)
06 -=- 06 - Soulympics.flac -=- CDDA (100%)
07 -=- 07 - Axion.flac -=- CDDA (100%)
08 -=- 08 - Mimosa Hostilis.flac -=- CDDA (100%)
09 -=- 09 - Obsidian.flac -=- CDDA (100%)
10 -=- 10 - Orc.flac -=- CDDA (100%)
Summary 99,90% CDDA
202188644
 
Album info
Zu, the Roman metal/math/no-wave/free noise/punk/jazz trio, is perhaps best known in the US as a band who have had an unbelievable line-up of recording partners which includes The Stooges’ Steve Mackay, Fugazi’s Joe Lally and Guy Picciotto, Sonic Youth’s Thurston Moore, Can’s Damo Suzuki, jazz masters Ken Vandermark and Mats Gustafsson, percussionists Han Bennink and Hamid Drake, improvisationalist Eugene Chadbourne and the like-minded Nobukazu Takemura. Now making their Ipecac debut, Carboniferous follows a year of performing overseas with label owner Mike Patton and features contributions from both the aforementioned Patton and The Melvins’ King Buzzo. Further cementing the Ipecac – Zu relationship is the rumored new BigBand, this one coupling Zu and dälek.
The Italian trio of Jacopo Battaglia (drums), Massimo Pupillo (bass) and Luca T. Mai (saxophone) formed in 1999 after having worked together in local theater. Driven by a punk rock work ethic, Zu have played an astounding number of over 1,000 gigs worldwide including Europe, North America, Asia, Russia, and even Africa. The have released fourteen albums to date.
“…combining the abstractions of Sonic Youth with the out-there explorations of the best free jazz” – The Times
“Musically they’re one mind only, ever-so-slightly inconvenienced by the necessity of being spit into 3 bodies. Their post-human tightness and devious compositions have carried them across the world’s ocean, and attracted collaborators ranging from free-jazz legends to the godfathers of experimental sludge” Rock-A-Rolla
 
Info
Источник: What.cd. Cпасибо пользователю shogun
Any questions -> support@pro-jazz.com. По всем вопросам пишите -> support@pro-jazz.com
08:58
219
Нет комментариев. Ваш будет первым!