Вы используете незарегистрированную версию компонента "Вкладки"!

Поиск

(Jazz / Avant-Garde) Aki Takase - St. Louis Blues - 2001, FLAC (tracks+.cue)

(Jazz / Avant-Garde) Aki Takase - St. Louis Blues - 2001, FLAC (tracks+.cue)
Треклист:
Aki Takase - St. Louis Blues
Жанр: Jazz / Blues
Дата записи: 29 июля 2001
Запись: Studio Vagnnson
Производитель диска: CD 9130-2 USA
Аудио кодек: FLAC
Тип рипа: tracks+.cue
Трэклист:
01. St. Louis Blues (3:56)
02. Way Down South Where the Blues Began (8.15)
03. Mobilat (2:44)
04. Morning Star (4:13)
05. Eine Drehorgel aus dem 21. Jahrhundert (7:29)
06. Lulu (2:06)
07. Wer kommt mehr vom Blues (2:32)
08. St. Louis Blues (4:54)
09. Nur da wo du bist da ist nichts (4:15)
10. Memphis Blues (2:37)
11. Jazz Ain’t What It Used To Be (4:07)
12. Yellow Dog Blues (4:08)
Aki Takase (Piano)
Rudi Mahall (Bass Clarinet )
Fred Frith (Guitar)
Nils Wogram (Trombone)
Paul Lovens (Drums)
 
EAC
EAC extraction logfile from 29. July 2006, 15:41 for CD
Aki Takase / St. Louis Blues
Used drive : PLEXTOR DVD-ROM PX-116A2 Adapter: 3 ID: 0
Read mode : Secure with NO C2, accurate stream, disable cache
Read offset correction : 102
Overread into Lead-In and Lead-Out : No
Used output format : Internal WAV Routines
44.100 Hz; 16 Bit; Stereo
Other options :
Fill up missing offset samples with silence : Yes
Delete leading and trailing silent blocks : No
Installed external ASPI interface
Track 1
Filename J:\upload\takase - st louis blues\Aki Takase\St. Louis Blues\01 - St. Louis Blues.wav
Pre-gap length 0:00:02.00
Peak level 97.1 %
Track quality 99.9 %
Test CRC DEF42585
Copy CRC DEF42585
Copy OK
Track 2
Filename J:\upload\takase - st louis blues\Aki Takase\St. Louis Blues\02 - Way Down South Where the Blues Began.wav
Pre-gap length 0:00:04.64
Peak level 97.1 %
Track quality 100.0 %
Test CRC A09930E0
Copy CRC A09930E0
Copy OK
Track 3
Filename J:\upload\takase - st louis blues\Aki Takase\St. Louis Blues\03 - Mobilat.wav
Pre-gap length 0:00:04.64
Peak level 97.1 %
Track quality 100.0 %
Test CRC CB83BF10
Copy CRC CB83BF10
Copy OK
Track 4
Filename J:\upload\takase - st louis blues\Aki Takase\St. Louis Blues\04 - Morning Star.wav
Pre-gap length 0:00:04.64
Peak level 97.1 %
Track quality 100.0 %
Test CRC 52A8C278
Copy CRC 52A8C278
Copy OK
Track 5
Filename J:\upload\takase - st louis blues\Aki Takase\St. Louis Blues\05 - Eine Drehorgel aus dem 21. Jahrhundert.wav
Pre-gap length 0:00:04.63
Peak level 97.1 %
Track quality 100.0 %
Test CRC 8BC6C7F7
Copy CRC 8BC6C7F7
Copy OK
Track 6
Filename J:\upload\takase - st louis blues\Aki Takase\St. Louis Blues\06 - Lulu.wav
Pre-gap length 0:00:04.64
Peak level 97.1 %
Track quality 100.0 %
Test CRC 91B7F5FC
Copy CRC 91B7F5FC
Copy OK
Track 7
Filename J:\upload\takase - st louis blues\Aki Takase\St. Louis Blues\07 - Wer kommt mehr vom Blues.wav
Pre-gap length 0:00:04.64
Peak level 97.1 %
Track quality 100.0 %
Test CRC A4AD9E30
Copy CRC A4AD9E30
Copy OK
Track 8
Filename J:\upload\takase - st louis blues\Aki Takase\St. Louis Blues\08 - St. Louis Blues.wav
Pre-gap length 0:00:04.64
Peak level 97.1 %
Track quality 100.0 %
Test CRC 126F698C
Copy CRC 126F698C
Copy OK
Track 9
Filename J:\upload\takase - st louis blues\Aki Takase\St. Louis Blues\09 - Nur da wo du bist da ist nichts.wav
Pre-gap length 0:00:04.64
Peak level 97.1 %
Track quality 99.9 %
Test CRC FD49466D
Copy CRC FD49466D
Copy OK
Track 10
Filename J:\upload\takase - st louis blues\Aki Takase\St. Louis Blues\10 - Memphis Blues.wav
Pre-gap length 0:00:04.65
Peak level 97.1 %
Track quality 99.9 %
Test CRC 4D95C7FF
Copy CRC 4D95C7FF
Copy OK
Track 11
Filename J:\upload\takase - st louis blues\Aki Takase\St. Louis Blues\11 - Jazz Ain't What It Used To Be.wav
Pre-gap length 0:00:04.64
Peak level 97.1 %
Track quality 100.0 %
Test CRC 8B077849
Copy CRC 8B077849
Copy OK
Track 12
Filename J:\upload\takase - st louis blues\Aki Takase\St. Louis Blues\12 - Yellow Dog Blues.wav
Pre-gap length 0:00:04.63
Peak level 97.1 %
Track quality 100.0 %
Test CRC F72D9D10
Copy CRC F72D9D10
Copy OK
No errors occured
End of status report
Any questions -> support@pro-jazz.com. По всем вопросам пишите -> support@pro-jazz.com
11:31
162
Нет комментариев. Ваш будет первым!