Вы используете незарегистрированную версию компонента "Вкладки"!

Поиск

(Avant-Garde/Free Jazz) Art Ensemble of Chicago-Live in Paris - 1969/2003, APE (image+.cue), lossless

(Avant-Garde/Free Jazz) Art Ensemble of Chicago-Live in Paris - 1969/2003, APE (image+.cue), lossless
Треклист:
Art Ensemble of Chicago-Live in Paris 2CD set - 2003, APE (image+.cue), lossless
Жанр: Avant-Garde/Free Jazz
Год записи диска: 1969
Год выпуска диска: 2003
Производитель диска: U.K.
Аудио кодек: APE
Тип рипа:2 image + 2.cue
Битрейт аудио: lossless
Продолжительность: 49:22 + 45:40
О альбоме
Трэклист:
disc one:
1. oh, strange - part one
2. oh, strange - part two
disc two:
1. bon voyage - part one
2. bon voyage - part two
Состав:
Lester Bowie Trumpet, Drums (Bass), Flugelhorn, Horn
Malachi Favors Banjo, Bass, Percussion, Bass (Electric), Log Drums
Joseph Jarman Clarinet, Flute, Guitar, Conga, Gong, Marimba, Oboe, Sax (Al), Sax (S), Whistle (Instrument), Bells, Vibraphone
Roscoe Mitchell Clarinet, Flute, Conga, Cymbals, Gong, Sax (Al), Sax (Bass), Sax (S), Whistle (Human), Drums (Steel), Bells
Fontella Bass Vocals
 
EAC log disc 1
Exact Audio Copy V0.99 prebeta 4 from 23. January 2008
Отчёт EAC об извлечении, выполненном 16. июня 2009, 17:55
Art Ensemble of Chicago / Live in paris - CD 1
Дисковод: HL-DT-STDVDRAM GH20NS10 Adapter: 1 ID: 0
Режим чтения : Достоверность
Использование точного потока : Да
Отключение кэша аудио : Да
Использование указателей C2 : Нет
Коррекция смещения при чтении : 667
Способность читать области Lead-in и Lead-out : Нет
Заполнение пропущенных сэмплов тишиной : Да
Удаление блоков с тишиной в начале и конце : Нет
При вычислениях CRC использовались нулевые сэмплы : Да
Интерфейс : Установленный внешний ASPI-интерфейс
Выходной формат : Внутренние WAV-операции
Формат сэмплов : 44.100 Гц; 16 бит; стерео
TOC извлечённого CD
Трек | Старт | Длительность | Начальный сектор | Конечный сектор
---------------------------------------------------------------------
1 | 0:00.00 | 23:49.00 | 0 | 107174
2 | 23:49.00 | 25:32.47 | 107175 | 222121
Характеристики диапазона извлечения и сообщения об ошибках
Выбранный диапазон
Имя файла D:\Музыка\Записи\Новая папка\Art Ensemble of Chicago - Live in paris - CD 1.wav
Пиковый уровень 100.0 %
Качество диапазона 100.0 %
CRC копии D94C7ABB
Копирование... OK
Ошибок не произошло
AccurateRip: сводка
Трек 1 точное извлечение (доверие 1) [B40FAEA1]
Трек 2 точное извлечение (доверие 1) [48F8688E]
Все треки извлечены точно
Конец отчёта
 
EAC log disc 2
Exact Audio Copy V0.99 prebeta 4 from 23. January 2008
Отчёт EAC об извлечении, выполненном 16. июня 2009, 18:05
Art Ensemble of Chicago / Live in Paris 2
Дисковод: HL-DT-STDVDRAM GH20NS10 Adapter: 1 ID: 0
Режим чтения : Достоверность
Использование точного потока : Да
Отключение кэша аудио : Да
Использование указателей C2 : Нет
Коррекция смещения при чтении : 667
Способность читать области Lead-in и Lead-out : Нет
Заполнение пропущенных сэмплов тишиной : Да
Удаление блоков с тишиной в начале и конце : Нет
При вычислениях CRC использовались нулевые сэмплы : Да
Интерфейс : Установленный внешний ASPI-интерфейс
Выходной формат : Внутренние WAV-операции
Формат сэмплов : 44.100 Гц; 16 бит; стерео
TOC извлечённого CD
Трек | Старт | Длительность | Начальный сектор | Конечный сектор
---------------------------------------------------------------------
1 | 0:00.00 | 21:33.43 | 0 | 97017
2 | 21:33.43 | 24:06.52 | 97018 | 205519
Характеристики диапазона извлечения и сообщения об ошибках
Выбранный диапазон
Имя файла D:\Музыка\Записи\Новая папка\Art Ensemble of Chicago - Live in Paris -CD 2.wav
Пиковый уровень 87.5 %
Качество диапазона 99.9 %
CRC копии 4565D668
Копирование... OK
Ошибок не произошло
AccurateRip: сводка
Трек 1 точное извлечение (доверие 1) [8EB8EEC0]
Трек 2 точное извлечение (доверие 1) [7795D35B]
Все треки извлечены точно
Конец отчёта
+scan
Any questions -> support@pro-jazz.com. По всем вопросам пишите -> support@pro-jazz.com
11:31
222
Нет комментариев. Ваш будет первым!