Поиск

(Jazz) Arve Henriksen, Terje Isungset & Karl Seglem - Daa - 2000, FLAC (image + .cue), lossless

(Jazz) Arve Henriksen, Terje Isungset & Karl Seglem - Daa - 2000, FLAC (image + .cue), lossless
Треклист:
Arve Henriksen, Terje Isungset & Karl Seglem - Daa
Страна: Norway
Жанр: Jazz
Год выпуска: 2000
Формат: FLAC (image + .cue)
Битрейт аудио: lossless
Продолжительность: 30:15
Трэклист:
1 Då
2 Bludo
3 Stryfro
4 Tegnefilm
5 Blåsetre
6 Tidleg
7 Amøbespy
8 Seint
9 To År Sidan
Доп. информация:
Arve Henriksen: trumpets, loops, voice
Terje Isungset: drums, percussion
Karl Seglem: tenor sax
 
EAC Report
Exact Audio Copy V0.99 prebeta 4 from 23. January 2008
EAC extraction logfile from 17. February 2008, 14:09
Arve Henriksen, Terje Isungset & Karl Seglem / Daa
Used drive : TSSTcorpCD/DVDW SH-S182M Adapter: 2 ID: 0
Read mode : Secure
Utilize accurate stream : Yes
Defeat audio cache : Yes
Make use of C2 pointers : No
Read offset correction : 6
Overread into Lead-In and Lead-Out : No
Fill up missing offset samples with silence : Yes
Delete leading and trailing silent blocks : No
Null samples used in CRC calculations : No
Used interface : Installed external ASPI interface
Used output format : User Defined Encoder
Selected bitrate : 1024 kBit/s
Quality : High
Add ID3 tag : No
Command line compressor : C:\Program Files\Exact Audio Copy\FLAC\FLAC.EXE
Additional command line options : -6 -V -T "ARTIST=%a" -T "TITLE=%t" -T "ALBUM=%g" -T "DATE=%y" -T "TRACKNUMBER=%n" -T "GENRE=%m" -T "COMMENT=%e" %s -o %d
TOC of the extracted CD
Track | Start | Length | Start sector | End sector
---------------------------------------------------------
1 | 0:00.50 | 5:50.61 | 50 | 26360
2 | 5:51.36 | 1:54.16 | 26361 | 34926
3 | 7:45.52 | 4:18.50 | 34927 | 54326
4 | 12:04.27 | 1:49.46 | 54327 | 62547
5 | 13:53.73 | 3:10.19 | 62548 | 76816
6 | 17:04.17 | 4:54.66 | 76817 | 98932
7 | 21:59.08 | 2:42.62 | 98933 | 111144
8 | 24:41.70 | 3:18.59 | 111145 | 126053
9 | 28:00.54 | 2:14.30 | 126054 | 136133
Range status and errors
Selected range
Filename C:\Documents and Settings\Igor\My Documents\Upload\Arve Henriksen, Terje Isungset & Karl Seglem - Daa.wav
Peak level 99.3 %
Range quality 100.0 %
Copy CRC 0554A484
Copy OK
No errors occurred
AccurateRip summary
Track 1 not present in database
Track 2 not present in database
Track 3 not present in database
Track 4 not present in database
Track 5 not present in database
Track 6 not present in database
Track 7 not present in database
Track 8 not present in database
Track 9 not present in database
None of the tracks are present in the AccurateRip database
End of status report
Приватный:
Нет (DHT включён)
Размер:
191.78 Мб (201,097,959 байт) » файлов: 5
Участники:
0 раздают, 0 качают (0 участников всего)
Внешние участники:
5 раздают, 2 качают (7 участников всего) [ Обновить ]
No seeders - write a personal message to user M0p94ok. Нет сидеров - пишите личное сообщение пользователю M0p94ok.
23:22
48
Нет комментариев. Ваш будет первым!