Поиск

(Avant-Garde Jazz, Experimental) The Free Zen Society (Matthew Shipp, William Parker, Zeena Parkins, Peter Gordon) {Thirsty Ear} - 2007, FLAC (image + .cue), lossless

(Avant-Garde Jazz, Experimental) The Free Zen Society (Matthew Shipp, William Parker, Zeena Parkins, Peter Gordon) {Thirsty Ear} - 2007, FLAC (image + .cue), lossless
Треклист:
The Free Zen Society


Страна: USA
Жанр: Avant-Garde Jazz, Experimental
Год выпуска: 2007
Формат: FLAC (image + .cue)
Битрейт аудио: lossless
Продолжительность: 40:06
1. Lightly Dropping
2. Thought Free
3. Surrender
4. Dream Escapes
5. Majestical
6. Glistening
7. Streaming Through
8. Clocking Space
Matthew Shipp - piano
William Parker - bass
Zeena Parkins - harp
Peter Gordon - all other sounds
Produced by Peter Gordon.
(c)(p) 2007 Thirsty Ear Recordings
THI 57177.2
 
EAC extraction logfile from 18. February 2008, 22:43
Exact Audio Copy V0.99 prebeta 3 from 28. July 2007
EAC extraction logfile from 18. February 2008, 22:43
The Free Zen Society / The Free Zen Society
Used drive : PLEXTOR DVDR PX-760A Adapter: 4 ID: 0
Read mode : Secure
Utilize accurate stream : Yes
Defeat audio cache : Yes
Make use of C2 pointers : No
Read offset correction : 30
Overread into Lead-In and Lead-Out : Yes
Fill up missing offset samples with silence : Yes
Delete leading and trailing silent blocks : No
Null samples used in CRC calculations : No
Used interface : Native Win32 interface for Win NT & 2000
Used output format : Internal WAV Routines
Sample format : 44.100 Hz; 16 Bit; Stereo
TOC of the extracted CD
Track | Start | Length | Start sector | End sector
---------------------------------------------------------
1 | 0:00.00 | 5:14.25 | 0 | 23574
2 | 5:14.25 | 5:47.01 | 23575 | 49600
3 | 11:01.26 | 4:52.59 | 49601 | 71559
4 | 15:54.10 | 5:12.64 | 71560 | 95023
5 | 21:06.74 | 4:05.46 | 95024 | 113444
6 | 25:12.45 | 2:47.10 | 113445 | 125979
7 | 27:59.55 | 6:28.02 | 125980 | 155081
8 | 34:27.57 | 5:38.19 | 155082 | 180450
Range status and errors
Selected range
Filename H:\The Free Zen Society - The Free Zen Society.wav
Peak level 95.6 %
Range quality 100.0 %
Copy CRC 2E56973C
Copy OK
No errors occurred
AccurateRip summary
Track 1 accurately ripped (confidence 1) [540857F5]
Track 2 accurately ripped (confidence 1) [E4423C42]
Track 3 accurately ripped (confidence 1) [938DFF4B]
Track 4 accurately ripped (confidence 1) [DF33A864]
Track 5 accurately ripped (confidence 1) [94C21526]
Track 6 accurately ripped (confidence 1) [CD1772DC]
Track 7 accurately ripped (confidence 1) [FF9D206D]
Track 8 accurately ripped (confidence 1) [5F444F11]
All tracks accurately ripped
End of status report
Собственный рип с оригинального диска.
В комплекте полный набор сканов PNG/300dpi.
Приватный:
Нет (DHT включён)
Размер:
195.07 Мб (204,549,225 байт) » файлов: 9
Участники:
0 раздают, 0 качают (0 участников всего)
Внешние участники:
5 раздают, 2 качают (7 участников всего) [ Обновить ]
Есть вопросы - пишите личное сообщение пользователю M0p94ok.
23:23
47
Нет комментариев. Ваш будет первым!