Поиск

(Jazz) Art Ensemble of Chicago - Les Stances a Sophie - 1970, FLAC (image + .cue), lossless

(Jazz) Art Ensemble of Chicago - Les Stances a Sophie - 1970, FLAC (image + .cue), lossless
Треклист:
Art Ensemble of Chicago - Les Stances a Sophie
Страна: USA
Жанр: Jazz
Год выпуска: 1970
Формат: FLAC (image + .cue)
Битрейт аудио: lossless
Продолжительность: 33:49
Malachi Favors bass (acoustic, electric), percussion
Don Moye drums
Roscoe Mitchell saxophone (soprano, alto, bass), clarinet, flute, percussion
Joseph Jarman saxophone (tenor, alto, soprano], flute, percussion
Lester Bowie trumpet, flugelhorn, percussion
Fontella Bass vocals, piano
Thème De Yoyo
Thème De Céline
Variations Sur Un Thème De Monteverdi (i)
Variations Sur Un Thème De Monteverdi (ii)
Proverbes (i)
Thème Amour Universal
Thème Libre
Proverbes (ii)
Recorded in the studios of Pathe Marconi in Boulogne on July 22, 1970.
 
EAC Report
Exact Audio Copy V0.99 prebeta 4 from 23. January 2008
EAC extraction logfile from 12. April 2008, 15:11
Art Ensemble of Chicago / Les Stances a Sophie
Used drive : MATSHITADVD-RAM UJ-840S Adapter: 1 ID: 0
Read mode : Secure
Utilize accurate stream : Yes
Defeat audio cache : Yes
Make use of C2 pointers : No
Read offset correction : 102
Overread into Lead-In and Lead-Out : No
Fill up missing offset samples with silence : Yes
Delete leading and trailing silent blocks : No
Null samples used in CRC calculations : No
Used interface : Installed external ASPI interface
Used output format : User Defined Encoder
Selected bitrate : 1024 kBit/s
Quality : High
Add ID3 tag : No
Command line compressor : C:\Program Files\Exact Audio Copy\FLAC\FLAC.EXE
Additional command line options : -6 -V -T "ARTIST=%a" -T "TITLE=%t" -T "ALBUM=%g" -T "DATE=%y" -T "TRACKNUMBER=%n" -T "GENRE=%m" -T "COMMENT=%e" %s -o %d
TOC of the extracted CD
Track | Start | Length | Start sector | End sector
---------------------------------------------------------
1 | 0:00.00 | 9:10.15 | 0 | 41264
2 | 9:10.15 | 3:04.32 | 41265 | 55096
3 | 12:14.47 | 3:02.73 | 55097 | 68819
4 | 15:17.45 | 1:50.02 | 68820 | 77071
5 | 17:07.47 | 2:38.45 | 77072 | 88966
6 | 19:46.17 | 3:51.43 | 88967 | 106334
7 | 23:37.60 | 8:49.05 | 106335 | 146014
8 | 32:26.65 | 1:22.47 | 146015 | 152211
Range status and errors
Selected range
Filename F:\u\Art Ensemble of Chicago\Art Ensemble of Chicago - Les Stances a Sophie.wav
Peak level 99.6 %
Range quality 100.0 %
Copy CRC 1FFD49F2
Copy OK
No errors occurred
AccurateRip summary
Track 1 cannot be verified as accurate (confidence 1) [DDDA8188], AccurateRip returned [79619A04]
Track 2 cannot be verified as accurate (confidence 1) [BEE6D98B], AccurateRip returned [723A2435]
Track 3 cannot be verified as accurate (confidence 1) [F39594DB], AccurateRip returned [73AEF62C]
Track 4 cannot be verified as accurate (confidence 1) [34ECAF10], AccurateRip returned [66BB7A21]
Track 5 cannot be verified as accurate (confidence 1) [84F9BD14], AccurateRip returned [1C11BA32]
Track 6 cannot be verified as accurate (confidence 1) [AA9D9352], AccurateRip returned [1910ADD9]
Track 7 cannot be verified as accurate (confidence 1) [FDAA943E], AccurateRip returned [F550988D]
Track 8 cannot be verified as accurate (confidence 1) [21EB916F], AccurateRip returned [C561AEC1]
No tracks could be verified as accurate
You may have a different pressing from the one(s) in the database
End of status report
Приватный:
Нет (DHT включён)
Размер:
195.34 Мб (204,827,959 байт) » файлов: 6
Участники:
0 раздают, 0 качают (0 участников всего)
Внешние участники:
9 раздают, 3 качают (12 участников всего) [ Обновить ]
No seeders - write personal message to user M0p94ok. Нет сидеров - пишите личное сообщение пользователю M0p94ok.
00:29
111
Нет комментариев. Ваш будет первым!