Поиск

(Jazz) Art Ensemble of Chicago - Go Home - 1970, FLAC (image + .cue), lossless

(Jazz) Art Ensemble of Chicago - Go Home - 1970, FLAC (image + .cue), lossless
Треклист:
Art Ensemble of Chicago - Go Home
Страна: USA
Жанр: Jazz
Год выпуска: 1970
Формат: FLAC (image + .cue)
Битрейт аудио: lossless
Продолжительность: 33:38
Hello Chi (I)
From Bengali
From St-Louis
Fly wyth honey hee
Hello Chi (II)
Dance
 
EAC Report
Exact Audio Copy V0.99 prebeta 4 from 23. January 2008
EAC extraction logfile from 12. April 2008, 14:19
Art Ensemble of Chicago / Go Home
Used drive : MATSHITADVD-RAM UJ-840S Adapter: 1 ID: 0
Read mode : Secure
Utilize accurate stream : Yes
Defeat audio cache : Yes
Make use of C2 pointers : No
Read offset correction : 102
Overread into Lead-In and Lead-Out : No
Fill up missing offset samples with silence : Yes
Delete leading and trailing silent blocks : No
Null samples used in CRC calculations : No
Used interface : Installed external ASPI interface
Used output format : User Defined Encoder
Selected bitrate : 1024 kBit/s
Quality : High
Add ID3 tag : No
Command line compressor : C:\Program Files\Exact Audio Copy\FLAC\FLAC.EXE
Additional command line options : -6 -V -T "ARTIST=%a" -T "TITLE=%t" -T "ALBUM=%g" -T "DATE=%y" -T "TRACKNUMBER=%n" -T "GENRE=%m" -T "COMMENT=%e" %s -o %d
TOC of the extracted CD
Track | Start | Length | Start sector | End sector
---------------------------------------------------------
1 | 0:00.32 | 2:54.35 | 32 | 13116
2 | 2:54.67 | 3:51.48 | 13117 | 30489
3 | 6:46.40 | 2:30.62 | 30490 | 41801
4 | 9:17.27 | 6:22.70 | 41802 | 70521
5 | 15:40.22 | 2:38.35 | 70522 | 82406
6 | 18:18.57 | 15:19.10 | 82407 | 151341
Range status and errors
Selected range
Filename F:\u\Art Ensemble of Chicago\Art Ensemble of Chicago - Go Home.wav
Peak level 98.8 %
Range quality 100.0 %
Copy CRC 4F5F47CA
Copy OK
No errors occurred
AccurateRip summary
Track 1 accurately ripped (confidence 1) [84321655]
Track 2 accurately ripped (confidence 1) [D507F116]
Track 3 accurately ripped (confidence 1) [F6FDC50A]
Track 4 accurately ripped (confidence 1) [ADF17B4F]
Track 5 accurately ripped (confidence 1) [C7794B48]
Track 6 accurately ripped (confidence 1) [9E085ECD]
All tracks accurately ripped
End of status report
Приватный:
Нет (DHT включён)
Размер:
170.77 Мб (179,067,452 байт) » файлов: 6
Участники:
0 раздают, 0 качают (0 участников всего)
Внешние участники:
2 раздают, 1 качают (3 участников всего) [ Обновить ]
Есть вопросы - пишите личное сообщение пользователю M0p94ok.
00:28
58
Нет комментариев. Ваш будет первым!