Поиск

(Japanese Jazz, Contemporary Jazz) [CD] Hozan Yamamoto - Shakuhachi - 1991 (Japan Edition), FLAC (tracks+.cue), lossless

(Japanese Jazz, Contemporary Jazz) [CD] Hozan Yamamoto - Shakuhachi - 1991 (Japan Edition), FLAC (tracks+.cue), lossless
Hozan Yamamoto - Shakuhachi
Жанр: Japanese Jazz, Contemporary Jazz
Носитель: CD
Страна-производитель диска (релиза): Япония
Год издания: 1991
Издатель (лейбл): Nippon Columbia (Sound of Japan)
Номер по каталогу: COCF-9383
Аудиокодек: FLAC (*.flac)
Тип рипа: tracks+.cue
Битрейт аудио: lossless
Продолжительность: 62:53
Источник (релизер): What.CD
Наличие сканов в содержимом раздачи: нет
Треклист:
01. Rainbow (Yamamoto) - 8:17
02. Kakurin (Hirose) - 9:48
03. Ichikotsu (Yamamoto) - 11:22
04. Dai-Yon-Fudo (Kineya) - 14:04
05. Concerto for Shakuhachi and Orchestra (Hirose) - 19:22
Состав:
Hozan Yamamoto, Reibo Aoki (#4), Katsuya Yokoyama (#4) - shakuhachi
Yosuke Yamashita - piano (#1)
Masahiko Togashi - percussion (#1)
Tadao Sawai - koto (#3)
NHK Symphony Orchestra (#5)
Yuzo Toyama - conductor (#5)
 
Лог создания рипа
X Lossless Decoder version 20121222 (142.2)
XLD extraction logfile from 2013-01-12 14:55:14 +0900
Hozan Yamamoto / Shakuhachi
Used drive : MATSHITA DVD-R UJ-8A8 (revision HB14)
Media type : Pressed CD
Ripper mode : XLD Secure Ripper
Disable audio cache : OK for the drive with a cache less than 1375KiB
Make use of C2 pointers : NO
Read offset correction : 102
Max retry count : 20
Gap status : Analyzed, Appended (except HTOA)
TOC of the extracted CD
Track | Start | Length | Start sector | End sector
---------------------------------------------------------
1 | 00:00:00 | 08:16:38 | 0 | 37237
2 | 08:16:38 | 09:48:32 | 37238 | 81369
3 | 18:04:70 | 11:21:60 | 81370 | 132504
4 | 29:26:55 | 14:03:45 | 132505 | 195774
5 | 43:30:25 | 19:21:63 | 195775 | 282912
AccurateRip Summary
Disc not found in AccurateRip DB.
All Tracks
Album gain : 4.64 dB
Peak : 0.953033
Statistics
Read error : 0
Jitter error (maybe fixed) : 0
Retry sector count : 0
Damaged sector count : 0
Track 01
Filename : /Volumes/G/Hozan Yamamoto - Shakuhachi (1991) [FLAC]/01 Rainbow.flac
Pre-gap length : 00:02:00
Track gain : 3.35 dB
Peak : 0.953033
CRC32 hash (test run) : 43C42651
CRC32 hash : 43C42651
CRC32 hash (skip zero) : 02E0DBC9
AccurateRip v1 signature : 8742D949
AccurateRip v2 signature : 551AAC76
->Track not present in AccurateRip database.
Statistics
Read error : 0
Jitter error (maybe fixed) : 0
Retry sector count : 0
Damaged sector count : 0
Track 02
Filename : /Volumes/G/Hozan Yamamoto - Shakuhachi (1991) [FLAC]/02 Kakurin.flac
Pre-gap length : 00:02:38
Track gain : 4.77 dB
Peak : 0.802460
CRC32 hash (test run) : C647A905
CRC32 hash : C647A905
CRC32 hash (skip zero) : EB0FC8CC
AccurateRip v1 signature : E60CF8A1
AccurateRip v2 signature : 27F60DF7
->Track not present in AccurateRip database.
Statistics
Read error : 0
Jitter error (maybe fixed) : 0
Retry sector count : 0
Damaged sector count : 0
Track 03
Filename : /Volumes/G/Hozan Yamamoto - Shakuhachi (1991) [FLAC]/03 Ichikotsu.flac
Pre-gap length : 00:03:57
Track gain : 5.65 dB
Peak : 0.477386
CRC32 hash (test run) : FF15499C
CRC32 hash : FF15499C
CRC32 hash (skip zero) : E9A2052A
AccurateRip v1 signature : 69178DEF
AccurateRip v2 signature : 26D38550
->Track not present in AccurateRip database.
Statistics
Read error : 0
Jitter error (maybe fixed) : 0
Retry sector count : 0
Damaged sector count : 0
Track 04
Filename : /Volumes/G/Hozan Yamamoto - Shakuhachi (1991) [FLAC]/04 Dai-Yon-Fudo.flac
Pre-gap length : 00:03:07
Track gain : 7.18 dB
Peak : 0.294952
CRC32 hash (test run) : BA30B21B
CRC32 hash : BA30B21B
CRC32 hash (skip zero) : CFAFB8E3
AccurateRip v1 signature : F0E482E2
AccurateRip v2 signature : DCABD552
->Track not present in AccurateRip database.
Statistics
Read error : 0
Jitter error (maybe fixed) : 0
Retry sector count : 0
Damaged sector count : 0
Track 05
Filename : /Volumes/G/Hozan Yamamoto - Shakuhachi (1991) [FLAC]/05 Concerto For Shakuhachi And Orchestra.flac
Pre-gap length : 00:04:00
Track gain : 3.25 dB
Peak : 0.892761
CRC32 hash (test run) : C4AFC72A
CRC32 hash : C4AFC72A
CRC32 hash (skip zero) : 630CF2CA
AccurateRip v1 signature : E67E1564
AccurateRip v2 signature : 146F6C14
->Track not present in AccurateRip database.
Statistics
Read error : 0
Jitter error (maybe fixed) : 0
Retry sector count : 0
Damaged sector count : 0
No errors occurred
End of status report
 
Содержание индексной карты (.CUE)
TITLE "Shakuhachi"
PERFORMER "Hozan Yamamoto"
CATALOG 4988001180975
REM GENRE "Jazz"
REM DATE "1991"
REM DISCID 470EBC05
REM REPLAYGAIN_ALBUM_GAIN 4.64 dB
REM REPLAYGAIN_ALBUM_PEAK 0.953033
FILE "01 - Rainbow.flac" WAVE
TRACK 01 AUDIO
TITLE "Rainbow"
ISRC JPCO08423450
REM REPLAYGAIN_TRACK_GAIN 3.35 dB
REM REPLAYGAIN_TRACK_PEAK 0.953033
INDEX 01 00:00:00
TRACK 02 AUDIO
TITLE "Kakurin"
ISRC JPCO08639350
REM REPLAYGAIN_TRACK_GAIN 4.77 dB
REM REPLAYGAIN_TRACK_PEAK 0.802460
INDEX 00 08:14:00
FILE "02 - Kakurin.flac" WAVE
INDEX 01 00:00:00
TRACK 03 AUDIO
TITLE "Ichikotsu"
ISRC JPCO08639360
REM REPLAYGAIN_TRACK_GAIN 5.65 dB
REM REPLAYGAIN_TRACK_PEAK 0.477386
INDEX 00 09:44:50
FILE "03 - Ichikotsu.flac" WAVE
INDEX 01 00:00:00
TRACK 04 AUDIO
TITLE "Dai-Yon-Fudo"
ISRC JPCO00000000
REM REPLAYGAIN_TRACK_GAIN 7.18 dB
REM REPLAYGAIN_TRACK_PEAK 0.294952
INDEX 00 11:18:53
FILE "04 - Dai-Yon-Fudo.flac" WAVE
INDEX 01 00:00:00
TRACK 05 AUDIO
TITLE "Concerto for Shakuhachi and Orchestra"
ISRC JPCO08639410
REM REPLAYGAIN_TRACK_GAIN 3.25 dB
REM REPLAYGAIN_TRACK_PEAK 0.892761
INDEX 00 13:59:45
FILE "05 - Concerto for Shakuhachi and Orchestra.flac" WAVE
INDEX 01 00:00:00
 
Отчет CUETools
[CUETools log; Date: 13.04.2017 2:33:33; Version: 2.1.5]
[CTDB TOCID: KK4zvzHOIi.3_lUgRgNHC8l3UEM-] found.
Track | CTDB Status
1 | (1/1) Accurately ripped
2 | (1/1) Accurately ripped
3 | (1/1) Accurately ripped
4 | (1/1) Accurately ripped
5 | (1/1) Accurately ripped
[AccurateRip ID: 000b22c9-0035c960-470ebc05] found.
Track [ CRC | V2 ] Status
01 [8742d949|551aac76] (0+2/2) Accurately ripped
02 [e60cf8a1|27f60df7] (0+2/2) Accurately ripped
03 [69178def|26d38550] (0+2/2) Accurately ripped
04 [f0e482e2|dcabd552] (0+2/2) Accurately ripped
05 [e67e1564|146f6c14] (0+2/2) Accurately ripped
Track Peak [ CRC32 ] [W/O NULL]
-- 95,3 [217870F0] [7C9EC811]
01 95,3 [43C42651] [02E0DBC9]
02 80,2 [C647A905] [EB0FC8CC]
03 47,7 [FF15499C] [E9A2052A]
04 29,4 [BA30B21B] [CFAFB8E3]
05 89,2 [C4AFC72A] [630CF2CA]
00:26
317
Нет комментариев. Ваш будет первым!