Поиск

(Electronic, Jazz, Experimental, Chiptune) [CD] Uské Orchestra (Uske Orchestra) - Niko Et La Berlue - 2005, FLAC (tracks+.cue), lossless

(Electronic, Jazz, Experimental, Chiptune) [CD] Uské Orchestra (Uske Orchestra) - Niko Et La Berlue - 2005, FLAC (tracks+.cue), lossless
Uské Orchestra (Uske Orchestra) / Niko Et La Berlue
Жанр: Electronic, Jazz, Experimental, Chiptune
Носитель: CD
Страна-производитель диска (релиза): Germany
Год издания: 2005
Издатель (лейбл): Sonig
Номер по каталогу: sonig 50CD
Страна исполнителя (группы): Belgium
Аудиокодек: FLAC (*.flac)
Тип рипа: tracks+.cue
Битрейт аудио: lossless
Продолжительность: 48:17
Источник (релизер): собственный рип
Наличие сканов в содержимом раздачи: да (discogs)
Треклист:
01. Elle Et Un Théatre De Bambous 4:26
02. Niko Et La Berlue 2:55
03. Un Tintamarre Bleu 4:53
04. Le Fantome Des Doux Matins 4:00
05. Sous Un Mot Aux Couleurs... 4:38
06. Tout Se Détache 6:48
07. L'Enclume Du Pays Des Dents 2:19
08. La Lechuza (Pour Itsu Et Jarini) 4:35
09. L'Inexplicable Soupirail Aux Zigzags 4:05
10. Sourire De Rhubarbe 2:30
11. La Flaque Papillon 4:02
12. Ta Douceur Déguisée En Silence 3:16
 
О релизе:
composé, joué, chanté, dessiné,... par nico uské
Packaging: 4-panel digipak with 2-page booklet.
 
Отчёт EAC
Exact Audio Copy V1.3 from 2. September 2016
EAC extraction logfile from 11. April 2017, 14:27
Uské Orchestra / Niko Et La Berlue
Used drive : ATAPI iHAS122 F Adapter: 1 ID: 0
Read mode : Secure
Utilize accurate stream : Yes
Defeat audio cache : Yes
Make use of C2 pointers : No
Read offset correction : 6
Overread into Lead-In and Lead-Out : No
Fill up missing offset samples with silence : Yes
Delete leading and trailing silent blocks : No
Null samples used in CRC calculations : Yes
Used interface : Native Win32 interface for Win NT & 2000
Gap handling : Appended to previous track
Used output format : User Defined Encoder
Selected bitrate : 128 kBit/s
Quality : High
Add ID3 tag : No
Command line compressor : C:\Program Files (x86)\Exact Audio Copy\Flac\flac.exe
Additional command line options : -V -8 -T "Genre=%genre%" -T "Artist=%artist%" -T "Title=%title%" -T "Album=%albumtitle%" -T "Date=%year%" -T "Tracknumber=%tracknr%" -T "Comment=%comment%" %source%
TOC of the extracted CD
Track | Start | Length | Start sector | End sector
---------------------------------------------------------
1 | 0:00.00 | 4:26.74 | 0 | 20023
2 | 4:26.74 | 2:55.06 | 20024 | 33154
3 | 7:22.05 | 4:53.17 | 33155 | 55146
4 | 12:15.22 | 4:00.09 | 55147 | 73155
5 | 16:15.31 | 4:38.64 | 73156 | 94069
6 | 20:54.20 | 6:48.65 | 94070 | 124734
7 | 27:43.10 | 2:19.30 | 124735 | 135189
8 | 30:02.40 | 4:35.74 | 135190 | 155888
9 | 34:38.39 | 4:05.67 | 155889 | 174330
10 | 38:44.31 | 2:30.47 | 174331 | 185627
11 | 41:15.03 | 4:02.29 | 185628 | 203806
12 | 45:17.32 | 3:16.70 | 203807 | 218576
Track 1
Filename F:\MyCD\01 - Elle Et Un Théatre De Bambous.wav
Pre-gap length 0:00:02.00
Peak level 99.8 %
Extraction speed 5.5 X
Track quality 100.0 %
Test CRC EFCB46CC
Copy CRC EFCB46CC
Track not present in AccurateRip database
Copy OK
Track 2
Filename F:\MyCD\02 - Niko Et La Berlue.wav
Pre-gap length 0:00:01.00
Peak level 99.8 %
Extraction speed 5.7 X
Track quality 100.0 %
Test CRC 20624A0B
Copy CRC 20624A0B
Track not present in AccurateRip database
Copy OK
Track 3
Filename F:\MyCD\03 - Un Tintamarre Bleu.wav
Pre-gap length 0:00:01.00
Peak level 99.8 %
Extraction speed 6.6 X
Track quality 100.0 %
Test CRC F4C1301D
Copy CRC F4C1301D
Track not present in AccurateRip database
Copy OK
Track 4
Filename F:\MyCD\04 - Le Fantome Des Doux Matins.wav
Pre-gap length 0:00:01.00
Peak level 99.8 %
Extraction speed 7.0 X
Track quality 100.0 %
Test CRC 90811D65
Copy CRC 90811D65
Track not present in AccurateRip database
Copy OK
Track 5
Filename F:\MyCD\05 - Sous Un Mot Aux Couleurs....wav
Pre-gap length 0:00:02.00
Peak level 99.8 %
Extraction speed 6.9 X
Track quality 99.9 %
Test CRC 7EC928D0
Copy CRC 7EC928D0
Track not present in AccurateRip database
Copy OK
Track 6
Filename F:\MyCD\06 - Tout Se Détache.wav
Pre-gap length 0:00:01.51
Peak level 99.8 %
Extraction speed 8.5 X
Track quality 100.0 %
Test CRC 70FA8FC6
Copy CRC 70FA8FC6
Track not present in AccurateRip database
Copy OK
Track 7
Filename F:\MyCD\07 - L'enclume Du Pays Des Dents.wav
Pre-gap length 0:00:01.42
Peak level 92.0 %
Extraction speed 7.8 X
Track quality 100.0 %
Test CRC 12CD48E7
Copy CRC 12CD48E7
Track not present in AccurateRip database
Copy OK
Track 8
Filename F:\MyCD\08 - La Lechuza.wav
Pre-gap length 0:00:01.15
Peak level 99.8 %
Extraction speed 9.0 X
Track quality 100.0 %
Test CRC 09BF7AEA
Copy CRC 09BF7AEA
Track not present in AccurateRip database
Copy OK
Track 9
Filename F:\MyCD\09 - L'inexplicable Soupirail Aux Zigzags.wav
Pre-gap length 0:00:02.00
Peak level 99.8 %
Extraction speed 9.2 X
Track quality 100.0 %
Test CRC A8D7F3C2
Copy CRC A8D7F3C2
Track not present in AccurateRip database
Copy OK
Track 10
Filename F:\MyCD\10 - Sourire De Rhubarbe.wav
Pre-gap length 0:00:02.00
Peak level 99.8 %
Extraction speed 8.8 X
Track quality 100.0 %
Test CRC 09714183
Copy CRC 09714183
Track not present in AccurateRip database
Copy OK
Track 11
Filename F:\MyCD\11 - La Flaque Papillon.wav
Pre-gap length 0:00:01.69
Peak level 99.8 %
Extraction speed 9.6 X
Track quality 100.0 %
Test CRC 9F97A12E
Copy CRC 9F97A12E
Track not present in AccurateRip database
Copy OK
Track 12
Filename F:\MyCD\12 - Ta Douceur Déguisée En Silence.wav
Pre-gap length 0:00:02.33
Peak level 99.8 %
Extraction speed 9.7 X
Track quality 100.0 %
Test CRC 953BD2CA
Copy CRC 953BD2CA
Track not present in AccurateRip database
Copy OK
None of the tracks are present in the AccurateRip database
No errors occurred
End of status report
---- CUETools DB Plugin V2.1.6
[CTDB TOCID: 9YDRY69taG_C6JXN5FkNIBlWaB0-] found
Submit result: 9YDRY69taG_C6JXN5FkNIBlWaB0- has been uploaded
Track | CTDB Status
1 | (1/1) Accurately ripped
2 | (1/1) Accurately ripped
3 | (1/1) Accurately ripped
4 | (1/1) Accurately ripped
5 | (1/1) Accurately ripped
6 | (1/1) Accurately ripped
7 | (1/1) Accurately ripped
8 | (0/1) No match
9 | (1/1) Accurately ripped
10 | (0/1) No match
11 | (1/1) Accurately ripped
12 | (1/1) Accurately ripped
==== Log checksum 5FCB18235223F5151CC15FA8865BE4F81ADCC1913605BB01E838512027465C14 ====
 
Содержание индексной карты (*.CUE)
REM DATE 2005
REM DISCID B10B620C
REM COMMENT "ExactAudioCopy v1.3"
CATALOG 0655035135021
PERFORMER "Uske Orchestra"
TITLE "Niko Et La Berlue"
REM COMPOSER ""
FILE "01 - Elle Et Un Theatre De Bambous.wav" WAVE
TRACK 01 AUDIO
TITLE "Elle Et Un Theatre De Bambous"
PERFORMER "Uske Orchestra"
REM COMPOSER ""
ISRC DEY170550001
INDEX 01 00:00:00
TRACK 02 AUDIO
TITLE "Niko Et La Berlue"
PERFORMER "Uske Orchestra"
REM COMPOSER ""
ISRC DEY170550002
INDEX 00 04:25:74
FILE "02 - Niko Et La Berlue.wav" WAVE
INDEX 01 00:00:00
TRACK 03 AUDIO
TITLE "Un Tintamarre Bleu"
PERFORMER "Uske Orchestra"
REM COMPOSER ""
ISRC DEY170550003
INDEX 00 02:54:06
FILE "03 - Un Tintamarre Bleu.wav" WAVE
INDEX 01 00:00:00
TRACK 04 AUDIO
TITLE "Le Fantome Des Doux Matins"
PERFORMER "Uske Orchestra"
REM COMPOSER ""
ISRC DEY170550004
INDEX 00 04:52:17
FILE "04 - Le Fantome Des Doux Matins.wav" WAVE
INDEX 01 00:00:00
TRACK 05 AUDIO
TITLE "Sous Un Mot Aux Couleurs..."
PERFORMER "Uske Orchestra"
REM COMPOSER ""
ISRC DEY170550005
INDEX 00 03:58:09
FILE "05 - Sous Un Mot Aux Couleurs....wav" WAVE
INDEX 01 00:00:00
TRACK 06 AUDIO
TITLE "Tout Se Detache"
PERFORMER "Uske Orchestra"
REM COMPOSER ""
ISRC DEY170550006
INDEX 00 04:37:13
FILE "06 - Tout Se Detache.wav" WAVE
INDEX 01 00:00:00
TRACK 07 AUDIO
TITLE "L'enclume Du Pays Des Dents"
PERFORMER "Uske Orchestra"
REM COMPOSER ""
ISRC DEY170550007
INDEX 00 06:47:23
FILE "07 - L'enclume Du Pays Des Dents.wav" WAVE
INDEX 01 00:00:00
TRACK 08 AUDIO
TITLE "La Lechuza"
PERFORMER "Uske Orchestra"
REM COMPOSER ""
ISRC DEY170550008
INDEX 00 02:18:15
FILE "08 - La Lechuza.wav" WAVE
INDEX 01 00:00:00
TRACK 09 AUDIO
TITLE "L'inexplicable Soupirail Aux Zigzags"
PERFORMER "Uske Orchestra"
REM COMPOSER ""
ISRC DEY170550009
INDEX 00 04:33:74
FILE "09 - L'inexplicable Soupirail Aux Zigzags.wav" WAVE
INDEX 01 00:00:00
TRACK 10 AUDIO
TITLE "Sourire De Rhubarbe"
PERFORMER "Uske Orchestra"
REM COMPOSER ""
ISRC DEY170550010
INDEX 00 04:03:67
FILE "10 - Sourire De Rhubarbe.wav" WAVE
INDEX 01 00:00:00
TRACK 11 AUDIO
TITLE "La Flaque Papillon"
PERFORMER "Uske Orchestra"
REM COMPOSER ""
ISRC DEY170550011
INDEX 00 02:28:53
FILE "11 - La Flaque Papillon.wav" WAVE
INDEX 01 00:00:00
TRACK 12 AUDIO
TITLE "Ta Douceur Deguisee En Silence"
PERFORMER "Uske Orchestra"
REM COMPOSER ""
ISRC DEY170550012
INDEX 00 03:59:71
FILE "12 - Ta Douceur Deguisee En Silence.wav" WAVE
INDEX 01 00:00:00
 
Содержание индексной карты (*.flac.CUE)
REM DATE 2005
REM DISCID B10B620C
REM COMMENT "ExactAudioCopy v1.3"
CATALOG 0655035135021
PERFORMER "Uske Orchestra"
TITLE "Niko Et La Berlue"
REM COMPOSER ""
FILE "01 - Elle Et Un Théatre De Bambous.wav" WAVE
TRACK 01 AUDIO
TITLE "Elle Et Un Théatre De Bambous"
PERFORMER "Uske Orchestra"
REM COMPOSER ""
ISRC DEY170550001
INDEX 01 00:00:00
TRACK 02 AUDIO
TITLE "Niko Et La Berlue"
PERFORMER "Uske Orchestra"
REM COMPOSER ""
ISRC DEY170550002
INDEX 00 04:25:74
FILE "02 - Niko Et La Berlue.wav" WAVE
INDEX 01 00:00:00
TRACK 03 AUDIO
TITLE "Un Tintamarre Bleu"
PERFORMER "Uske Orchestra"
REM COMPOSER ""
ISRC DEY170550003
INDEX 00 02:54:06
FILE "03 - Un Tintamarre Bleu.wav" WAVE
INDEX 01 00:00:00
TRACK 04 AUDIO
TITLE "Le Fantome Des Doux Matins"
PERFORMER "Uske Orchestra"
REM COMPOSER ""
ISRC DEY170550004
INDEX 00 04:52:17
FILE "04 - Le Fantome Des Doux Matins.wav" WAVE
INDEX 01 00:00:00
TRACK 05 AUDIO
TITLE "Sous Un Mot Aux Couleurs..."
PERFORMER "Uske Orchestra"
REM COMPOSER ""
ISRC DEY170550005
INDEX 00 03:58:09
FILE "05 - Sous Un Mot Aux Couleurs....wav" WAVE
INDEX 01 00:00:00
TRACK 06 AUDIO
TITLE "Tout Se Détache"
PERFORMER "Uske Orchestra"
REM COMPOSER ""
ISRC DEY170550006
INDEX 00 04:37:13
FILE "06 - Tout Se Détache.wav" WAVE
INDEX 01 00:00:00
TRACK 07 AUDIO
TITLE "L'enclume Du Pays Des Dents"
PERFORMER "Uske Orchestra"
REM COMPOSER ""
ISRC DEY170550007
INDEX 00 06:47:23
FILE "07 - L'enclume Du Pays Des Dents.wav" WAVE
INDEX 01 00:00:00
TRACK 08 AUDIO
TITLE "La Lechuza"
PERFORMER "Uske Orchestra"
REM COMPOSER ""
ISRC DEY170550008
INDEX 00 02:18:15
FILE "08 - La Lechuza.wav" WAVE
INDEX 01 00:00:00
TRACK 09 AUDIO
TITLE "L'inexplicable Soupirail Aux Zigzags"
PERFORMER "Uske Orchestra"
REM COMPOSER ""
ISRC DEY170550009
INDEX 00 04:33:74
FILE "09 - L'inexplicable Soupirail Aux Zigzags.wav" WAVE
INDEX 01 00:00:00
TRACK 10 AUDIO
TITLE "Sourire De Rhubarbe"
PERFORMER "Uske Orchestra"
REM COMPOSER ""
ISRC DEY170550010
INDEX 00 04:03:67
FILE "10 - Sourire De Rhubarbe.wav" WAVE
INDEX 01 00:00:00
TRACK 11 AUDIO
TITLE "La Flaque Papillon"
PERFORMER "Uske Orchestra"
REM COMPOSER ""
ISRC DEY170550011
INDEX 00 02:28:53
FILE "11 - La Flaque Papillon.wav" WAVE
INDEX 01 00:00:00
TRACK 12 AUDIO
TITLE "Ta Douceur Déguisée En Silence"
PERFORMER "Uske Orchestra"
REM COMPOSER ""
ISRC DEY170550012
INDEX 00 03:59:71
FILE "12 - Ta Douceur Déguisée En Silence.wav" WAVE
INDEX 01 00:00:00
00:25
260
Нет комментариев. Ваш будет первым!