Поиск

(Improvisation) AMM - AMMMusic 1966 - 1989, FLAC (image+.cue), lossless

(Improvisation) AMM - AMMMusic 1966 - 1989, FLAC (image+.cue), lossless
Треклист:
AMM - AMMMusic 1966
Жанр: Improvisation
Год выпуска диска: 1989
Производитель диска: England
Аудио кодек: FLAC
Тип рипа: image+.cue
Битрейт аудио: lossless
Продолжительность: 74:24
Трэклист:
1 Later During A Flaming Riviera Sunset (6:51)
2 Later During A Flaming Riviera Sunset (LP Version) (21:03)
3 Ailantus Glandulosa (5:27)
4 In The Realm Of Nothing Whatever (13:19)
5 After Rapidly Circling The Plaza (1:03)
6 After Rapidly Circling The Plaza (LP Version) (20:31)
7 What Is There In Uselesness To Cause You Distress? (3:00)
8 Silence (0:10)
Доп. информация: Credits: Cello, Accordion, Clarinet, Performer [Transistor Radio] - Lawrence Sheaff
Composed By - Cardew* , Prévost* , Rowe* , Sheaff* , Gare*
Guitar [Electric], Performer [Transistor Radio], Artwork By - Keith Rowe
Percussion, Other [Notes] - Eddie Prévost
Piano, Cello, Performer [Transistor Radio] - Cornelius Cardew
Producer - DNA (18)
Producer [Credited To] - Alan Becket , John Hopkins (5) , Peter Jenner , Ronald Atkins
Saxophone [Tenor], Violin - Lou Gare
Notes: Recorded June 8 & 27, 1966 in London at Sound Techniques.
Tracks 2 & 6 are from the 1967 "AMMMUSIC" LP.
Combined with tracks 1 & 5 they are the respective full versions.
 
EAC
Exact Audio Copy V0.99 prebeta 4 from 23. January 2008
EAC extraction logfile from 4. September 2008, 9:44
AMM / AMMMusic
Used drive : Optiarc DVD RW AD-7200S Adapter: 1 ID: 0
Read mode : Secure
Utilize accurate stream : Yes
Defeat audio cache : Yes
Make use of C2 pointers : No
Read offset correction : 48
Overread into Lead-In and Lead-Out : No
Fill up missing offset samples with silence : Yes
Delete leading and trailing silent blocks : No
Null samples used in CRC calculations : Yes
Used interface : Installed external ASPI interface
Used output format : User Defined Encoder
Selected bitrate : 768 kBit/s
Quality : High
Add ID3 tag : No
Command line compressor : C:\Program Files\Exact Audio Copy\FLAC\FLAC.EXE
Additional command line options : -6 -V -T "ARTIST=%a" -T "TITLE=%t" -T "ALBUM=%g" -T "DATE=%y" -T "TRACKNUMBER=%n" -T "GENRE=%m" -T "COMMENT=%e" %s -o %d
TOC of the extracted CD
Track | Start | Length | Start sector | End sector
---------------------------------------------------------
1 | 0:00.00 | 6:49.37 | 0 | 30711
2 | 6:49.37 | 21:06.60 | 30712 | 125721
3 | 27:56.22 | 5:31.63 | 125722 | 150609
4 | 33:28.10 | 13:21.37 | 150610 | 210721
5 | 46:49.47 | 1:03.35 | 210722 | 215481
6 | 47:53.07 | 23:19.20 | 215482 | 320426
7 | 71:12.27 | 3:01.38 | 320427 | 334039
8 | 74:13.65 | 0:10.12 | 334040 | 334801
Range status and errors
Selected range
Filename D:\RIPS 2\AMMMusic\AMM - AMMMusic.wav
Peak level 97.1 %
Range quality 100.0 %
Test CRC 0FE7E41C
Copy CRC 0FE7E41C
Copy OK
No errors occurred
AccurateRip summary
Track 1 accurately ripped (confidence 1) [29811CEC]
Track 2 accurately ripped (confidence 1) [62FC6C9F]
Track 3 accurately ripped (confidence 1) [0C290553]
Track 4 accurately ripped (confidence 1) [9E4936AE]
Track 5 accurately ripped (confidence 1) [592E480C]
Track 6 accurately ripped (confidence 1) [DA9A960C]
Track 7 accurately ripped (confidence 1) [8C988146]
Track 8 accurately ripped (confidence 1) [045FC411]
All tracks accurately ripped
End of status report
P.S. Если Вам понравилась музыка, а тем более если она близка по духу, обязательно купите официальный альбом и так поддержите музыкантов!
Приватный:
Нет (DHT включён)
Размер:
435.77 Мб (456,940,133 байт) » файлов: 3
Участники:
0 раздают, 0 качают (0 участников всего)
Внешние участники:
5 раздают, 2 качают (7 участников всего) [ Обновить ]
No seeders - write a personal message to user M0p94ok. Нет сидеров - пишите личное сообщение пользователю M0p94ok.
03:44
61
Нет комментариев. Ваш будет первым!