Поиск

(AvantProgJazz) Flat Earth Society - ISMS - 2004, APE (image+.cue), lossless

Треклист:
Flat Earth Society - ISMS
Жанр: AvantProgJazz
Год выпуска диска: 2004
Производитель диска: Belgium (USA)
Аудио кодек: APE
Тип рипа: image+.cue
Битрейт аудио: lossless
Продолжительность: 62:34
Трэклист:
1 De Vrachtwagen 1 - 1:09
2 O.P.E.N.E.R. - 4:01
3 Ich Kann Ohne Euch Nicht Sein - 1:00
4 Tibbe En Bibi Fiesen Huiswaarts - 0:19
5 Pune - 4:58
6 Tibe Hurt Iets - 0:52
7 Zonk - 5:29
8 Minoes Op Boodschap - 1:44
9 Funeral & Binche - 6:18
10 Woeful Message from the VLF - 5:11
11 De Zoekacti - 3:34
12 Trap - 8:13
13 Naar De Emmalaan - 0:25
14 (Little) King Ink - 8:26
15 Een Nest Jongen - 0:27
16 Ellemeet En De Katten - 2:11
17 Marche Des Lames - 6:18
18 Stilleven Met Jakkepoes - 0:56
19 De Vrachtwagen 2 - 0:56
Доп. информация:
Это не совсем номерной альбом, а компиляция Майка Паттона. Он создал ее для знакомства с группой. Для любителей нестандартной музыки рекомендуется!
 
FES - Flat Earth Society
FES was founded in 1998, when no-nonsense artist, former architect, clarinettist, saxophonist, keyboard player, composer and producer Peter Vermeersch, wanted to explore new horizons after having convinced music lovers all over the word with Maximalist! and the cult legend band X-legged Sally. Vermeersch, who worked with international artists like Josse De Pauw, Wim Vandekeybus, Vincent Bal, Anne Teresa De Keersmaeker, Fred Frith, The Simpletones and Jazzwork from Berlin and wrote music for the Arditti Quartet, PrimaLa Musica and theSmithQuartet, assembled a pack of inspired and inimitable musicians, forming a big band which has nowadays become much more than just a big band. Peter Vermeersch included, the band now consists of a permanent group of 14 musicians: Stefaan Blancke (trombone), Benjamin Boutreur (saxes), Berlinde Deman (bass tuba), Bart Maris (trumpet), Michel Mast (saxes), Marc Meeuwissen (trombone), Kristof Roseeuw (double bass), Luc Van Lieshout (trumpet), Bruno Vansina (saxes), Peter Vandenberghe (keyboards & compositions), Teun Verbruggen (percussion), Wim Willaert (accordion), Tom Wouters (clarinet, percussion).
The music of FES, varying from strictly written sheet music to liberating improvisation, is 95% homemade. Streaks of music of other composers are used as inspiration, frequently arranged, adapted and integrated into FES compositions, adding a wide range of atmospheres and styles to the eclectic FES universe. FES, who dares to flirt with other disciplines as theatre and film and owns the ability to seduce a number of different audiences, from more select jazz listeners to a wild young rock public, is at its best live on stage.
Mike Patton discovered the music of Flat Earth Society. He immediately proposed the band to release their next album and in attendance of that album he wanted to bring out a compilation album in the US. FES-isms was compiled by Mike Patton himself. Flat Earth Society joined Patton’s band Fantômas on their European tour in Italy, Belgium, Holland, France, Switzerland and England.
 
скрытый текст
Exact Audio Copy V0.99 prebeta 4 from 23. January 2008
Отчёт EAC об извлечении, выполненном 21. сентября 2008, 22:21
Flat Earth Society / ISMS
Дисковод: _NEC CD-RW NR-9300A Adapter: 3 ID: 0
Режим чтения : Достоверность
Использование точного потока : Да
Отключение кэша аудио : Да
Использование указателей C2 : Нет
Коррекция смещения при чтении : 685
Способность читать области Lead-in и Lead-out : Нет
Заполнение пропущенных сэмплов тишиной : Да
Удаление блоков с тишиной в начале и конце : Нет
При вычислениях CRC использовались нулевые сэмплы : Нет
Интерфейс : Встроенный Win32-интерфейс для Win NT/2000
Выходной формат : Внутренние WAV-операции
Формат сэмплов : 44.100 Гц; 16 бит; стерео
TOC извлечённого CD
Трек | Старт | Длительность | Начальный сектор | Конечный сектор
---------------------------------------------------------------------
1 | 0:00.66 | 1:09.45 | 66 | 5285
2 | 1:10.36 | 4:00.71 | 5286 | 23356
3 | 5:11.32 | 1:00.19 | 23357 | 27875
4 | 6:11.51 | 0:19.32 | 27876 | 29332
5 | 6:31.08 | 4:58.57 | 29333 | 51739
6 | 11:29.65 | 0:52.20 | 51740 | 55659
7 | 12:22.10 | 5:29.61 | 55660 | 80395
8 | 17:51.71 | 1:43.68 | 80396 | 88188
9 | 19:35.64 | 6:18.19 | 88189 | 116557
10 | 25:54.08 | 5:11.10 | 116558 | 139892
11 | 31:05.18 | 3:34.35 | 139893 | 155977
12 | 34:39.53 | 8:13.45 | 155978 | 192997
13 | 42:53.23 | 0:25.53 | 192998 | 194925
14 | 43:19.01 | 8:26.21 | 194926 | 232896
15 | 51:45.22 | 0:27.15 | 232897 | 234936
16 | 52:12.37 | 2:11.15 | 234937 | 244776
17 | 54:23.52 | 6:18.07 | 244777 | 273133
18 | 60:41.59 | 0:56.58 | 273134 | 277391
19 | 61:38.42 | 0:56.43 | 277392 | 281634
Характеристики диапазона извлечения и сообщения об ошибках
Выбранный диапазон
Имя файла F:\m\1\Flat Earth Society - ISMS\Flat Earth Society - ISMS.wav
Пиковый уровень 100.0 %
Качество диапазона 100.0 %
CRC копии AF2B39D3
Копирование... OK
Ошибок не произошло
Конец отчёта
Есть и другие альбомы, но в МР3 Кто-нибудь - поделитесь "безпотерьными" версиями
Приватный:
Нет (DHT включён)
Размер:
394.78 Мб (413,958,124 байт) » файлов: 3
Участники:
0 раздают, 0 качают (0 участников всего)
Внешние участники:
2 раздают, 1 качают (3 участников всего) [ Обновить ]
No seeders - write a personal message to user M0p94ok. Нет сидеров - пишите личное сообщение пользователю M0p94ok.
03:43
93
Нет комментариев. Ваш будет первым!