Поиск

(IDM / Jazz / Experimental) Method of Defiance 2007 Inamorata (Bill Laswell / Pharoah Sanders / John Zorn / Dave Liebman / Buckethead / Pete Cosey / Bernie Worrell / Toshinori Kondo / Herbie Hancock etc), FLAC (image+.cue), lossless

(IDM / Jazz / Experimental) Method of Defiance 2007 Inamorata (Bill Laswell / Pharoah Sanders / John Zorn / Dave Liebman / Buckethead / Pete Cosey / Bernie Worrell / Toshinori Kondo / Herbie Hancock etc), FLAC (image+.cue), lossless
Треклист:
Method of Defiance - Inamorata
Жанр: IDM / Jazz / Experimental
Год выпуска диска: 2007
Производитель диска: USA (Ohm Resistance)
Аудио кодек: FLAC
Тип рипа: image+.cue
Битрейт аудио: lossless
Продолжительность: 69:00
Трэклист:
01 Submerged / Pharoah Sanders - Ta' Wil (7:56)
02 Paradox , Toshinori Kondo , Buckethead & Bernie Worrell - Humanoid (4:48)
03 Black Sun Empire , Graham Haynes & Pete Cosey - Hidden Killer (4:55)
04 D-Star / Byard Lancaster / Pete Cosey - Amenta (6:48)
05 Paradox / Herbie Hancock - Panepha (4:44)
06 Amit / Toshinori Kondo / Buckethead - Babylon Decoder (5:20)
07 SPL / John Zorn / Masada String Trio - Aibi Virus (6:41)
08 Outrage / Craig Taborn - Anti Jazz Glitch (6:39)
09 Fanu / Graham Haynes / Byard Lancaster - Black Water (4:28)
10 Evil Intent / Dave Liebman - Pattern Engine (4:56)
11 Karsh Kale / Nils Petter Molvaer - Aether (5:13)
12 Corrupt Souls - Remains (6:28)
Bill Laswell - Producer, Arranged by
Mastered at Turtle Tone Studio, NYC.
Additional preproduction + coordination: Submerged + Robert Soares
Доп. информация:
Лет 10 назад подобный эксперимент (фьюжн из джаза, даба, DnB, IDM с приглашенными superstar'ами джаза) был бы воспринят на ура, а в 2007 году пожалуй этот альбом выглядит малость запоздалым (из-за выцветшего сегодня IDM). Но ради интереса послушать можно, тем более, что подобных коллабораций не припоминаю.
Ну и естественно в нижней части всех треков расположился дабовый бас Ласвела.
Thanx to sinziana @hqshare.
Сканы прилагаются.
 
Отчет EAC
Код:
Exact Audio Copy V0.99 prebeta 4 from 23. January 2008
EAC extraction logfile from 6. October 2008, 11:17
Method of Defiance / Inamorata
Used drive  : HL-DT-STDVDRAM GSA-H10N   Adapter: 0  ID: 0
Read mode               : Secure
Utilize accurate stream : Yes
Defeat audio cache      : Yes
Make use of C2 pointers : No
Read offset correction                      : 667
Overread into Lead-In and Lead-Out          : No
Fill up missing offset samples with silence : Yes
Delete leading and trailing silent blocks   : No
Null samples used in CRC calculations       : Yes
Used interface                              : Native Win32 interface for Win NT & 2000
Used output format              : User Defined Encoder
Selected bitrate                : 768 kBit/s
Quality                         : High
Add ID3 tag                     : No
Command line compressor         : C:\Program Files\Exact Audio Copy\FLAC\FLAC.EXE
Additional command line options : --best -V -T "ARTIST=%a" -T "TITLE=%t" -T "ALBUM=%g" -T "DATE=%y" -T "TRACKNUMBER=%n" -T "GENRE=%m" -T "COMMENT=%e" %s -o %d
TOC of the extracted CD
     Track |   Start  |  Length  | Start sector | End sector
    ---------------------------------------------------------
        1  |  0:00.00 |  7:56.05 |         0    |    35704
        2  |  7:56.05 |  4:48.30 |     35705    |    57334
        3  | 12:44.35 |  4:55.57 |     57335    |    79516
        4  | 17:40.17 |  6:48.26 |     79517    |   110142
        5  | 24:28.43 |  4:44.31 |    110143    |   131473
        6  | 29:12.74 |  5:20.27 |    131474    |   155500
        7  | 34:33.26 |  6:41.19 |    155501    |   185594
        8  | 41:14.45 |  6:39.16 |    185595    |   215535
        9  | 47:53.61 |  4:28.34 |    215536    |   235669
       10  | 52:22.20 |  4:56.60 |    235670    |   257929
       11  | 57:19.05 |  5:13.16 |    257930    |   281420
       12  | 62:32.21 |  6:28.04 |    281421    |   310524
Range status and errors
Selected range
     Filename C:\Documents and Settings\sbesson\Bureau\Method of Defiance - Inamorata.wav
     Peak level 49.6 %
     Range quality 100.0 %
     Copy CRC 5D183D09
     Copy OK
No errors occurred
AccurateRip summary
Track  1  not present in database
Track  2  not present in database
Track  3  not present in database
Track  4  not present in database
Track  5  not present in database
Track  6  not present in database
Track  7  not present in database
Track  8  not present in database
Track  9  not present in database
Track 10  not present in database
Track 11  not present in database
Track 12  not present in database
None of the tracks are present in the AccurateRip database
End of status report
Приватный:
Нет (DHT включён)
Размер:
423.62 Мб (444,199,441 байт) » файлов: 8
Участники:
0 раздают, 0 качают (0 участников всего)
Внешние участники:
9 раздают, 3 качают (12 участников всего) [ Обновить ]
No seeders - write a personal message to user M0p94ok. Нет сидеров - пишите личное сообщение пользователю M0p94ok.
03:59
56
Нет комментариев. Ваш будет первым!