Поиск

(Avant-Garde / Modern Composition) Mark Dresser - Invocation - 1995, FLAC (image+.cue), lossless

(Avant-Garde / Modern Composition) Mark Dresser - Invocation - 1995, FLAC (image+.cue), lossless
Треклист:
Mark Dresser - Invocation
Жанр: Avant-Garde / Modern Composition
Год выпуска диска: 1995
Производитель диска: USA (Knitting Factrory Works)
Аудио кодек: FLAC
Тип рипа: image+.cue
Битрейт аудио: lossless
Продолжительность: 46:49
Mark Dresser bass
Trenchant
Threnody for Charles Mingus
Subtonium
Invocation
Trains
Threaded
Polystop For Multiple Solo Bass
 
EAC Report
Exact Audio Copy V0.99 prebeta 4 from 23. January 2008
EAC extraction logfile from 20. July 2008, 22:30
Mark Dresser / Invocation
Used drive : TSSTcorpCD/DVDW SH-S182M Adapter: 2 ID: 0
Read mode : Secure
Utilize accurate stream : Yes
Defeat audio cache : Yes
Make use of C2 pointers : No
Read offset correction : 6
Overread into Lead-In and Lead-Out : No
Fill up missing offset samples with silence : Yes
Delete leading and trailing silent blocks : No
Null samples used in CRC calculations : No
Used interface : Installed external ASPI interface
Used output format : User Defined Encoder
Selected bitrate : 1024 kBit/s
Quality : High
Add ID3 tag : No
Command line compressor : C:\Program Files\Exact Audio Copy\FLAC\FLAC.EXE
Additional command line options : -6 -V -T "ARTIST=%a" -T "TITLE=%t" -T "ALBUM=%g" -T "DATE=%y" -T "TRACKNUMBER=%n" -T "GENRE=%m" -T "COMMENT=%e" %s -o %d
TOC of the extracted CD
Track | Start | Length | Start sector | End sector
---------------------------------------------------------
1 | 0:00.00 | 9:49.26 | 0 | 44200
2 | 9:49.26 | 5:44.49 | 44201 | 70049
3 | 15:34.00 | 4:59.45 | 70050 | 92519
4 | 20:33.45 | 6:22.54 | 92520 | 121223
5 | 26:56.24 | 4:43.67 | 121224 | 142515
6 | 31:40.16 | 4:55.73 | 142516 | 164713
7 | 36:36.14 | 10:12.51 | 164714 | 210664
Range status and errors
Selected range
Filename F:\z\Mark Dresser - Invocation.wav
Peak level 98.8 %
Range quality 100.0 %
Copy CRC F52BB804
Copy OK
No errors occurred
AccurateRip summary
Track 1 not present in database
Track 2 not present in database
Track 3 not present in database
Track 4 not present in database
Track 5 not present in database
Track 6 not present in database
Track 7 not present in database
None of the tracks are present in the AccurateRip database
End of status report

Приватный:
Нет (DHT включён)
Размер:
187.81 Мб (196,935,009 байт) » файлов: 5
Участники:
0 раздают, 0 качают (0 участников всего)
Внешние участники:
2 раздают, 1 качают (3 участников всего) [ Обновить ]
No seeders - write a personal message to user M0p94ok. Нет сидеров - пишите личное сообщение пользователю M0p94ok.
03:59
66
Нет комментариев. Ваш будет первым!