Поиск

(Hip Hop,Soul,Funk,Electric Blues) [CD] Lucille Crew (Rebel Sun,Coolooloosh) - Lucille - 2014, FLAC (image+.cue), lossless

(Hip Hop,Soul,Funk,Electric Blues) [CD] Lucille Crew (Rebel Sun,Coolooloosh) - Lucille - 2014, FLAC (image+.cue), lossless
Треклист:
Lucille Crew / Lucille
Жанр: Hip Hop,Soul,Funk,Electric Blues
Носитель: CD
Страна-производитель диска (релиза): Israel
Год издания: 2014
Издатель (лейбл): Lucille Crew
Номер по каталогу: not specified
Страна исполнителя (группы): Israel/US/Argentina
Аудиокодек: FLAC (*.flac)
Тип рипа: image+.cue
Битрейт аудио: lossless
Продолжительность: 00:36:04
Источник (релизер): собственный рип
Наличие сканов в содержимом раздачи: нет
Треклист:
01.A Rebel's Word
02.Pull Through
03.Back To the Regular
04.Day Drifter
05.Big City
06.Bluesin'
07.Grandma's Hands
08.Moses
09.Her Majesty (Skit)
10.Deep In Da' Mudd 2.0
11.Too Much
12.Different Life
 
Лог создания рипа
Exact Audio Copy V1.0 beta 6 from 9. April 2015
EAC extraction logfile from 19. June 2015, 3:27
Lucille Crew / Lucille
Used drive : HL-DT-STDVDRAM GT20N Adapter: 1 ID: 0
Read mode : Secure
Utilize accurate stream : Yes
Defeat audio cache : Yes
Make use of C2 pointers : No
Read offset correction : 667
Overread into Lead-In and Lead-Out : No
Fill up missing offset samples with silence : Yes
Delete leading and trailing silent blocks : No
Null samples used in CRC calculations : Yes
Used interface : Native Win32 interface for Win NT & 2000
Used output format : User Defined Encoder
Selected bitrate : 768 kBit/s
Quality : High
Add ID3 tag : No
Command line compressor : C:\Program Files (x86)\Exact Audio Copy\Flac\flac.exe
Additional command line options : -V -8 -T "Date=%year%" -T "Genre=%genre%" %source%
TOC of the extracted CD
Track | Start | Length | Start sector | End sector
---------------------------------------------------------
1 | 0:00.00 | 0:52.46 | 0 | 3945
2 | 0:52.46 | 4:43.27 | 3946 | 25197
3 | 5:35.73 | 0:35.40 | 25198 | 27862
4 | 6:11.38 | 3:52.38 | 27863 | 45300
5 | 10:04.01 | 4:42.21 | 45301 | 66471
6 | 14:46.22 | 1:50.73 | 66472 | 74794
7 | 16:37.20 | 3:08.46 | 74795 | 88940
8 | 19:45.66 | 3:35.47 | 88941 | 105112
9 | 23:21.38 | 0:39.21 | 105113 | 108058
10 | 24:00.59 | 3:13.04 | 108059 | 122537
11 | 27:13.63 | 4:15.44 | 122538 | 141706
12 | 31:29.32 | 4:35.04 | 141707 | 162335
Range status and errors
Selected range
Filename C:\Users\maritu\Music\RIPS\Lucille Crew - Lucille.wav
Peak level 100.0 %
Extraction speed 1.7 X
Range quality 100.0 %
Test CRC 6D8A2009
Copy CRC 6D8A2009
Copy OK
No errors occurred
AccurateRip summary
Track 1 not present in database
Track 2 not present in database
Track 3 not present in database
Track 4 not present in database
Track 5 not present in database
Track 6 not present in database
Track 7 not present in database
Track 8 not present in database
Track 9 not present in database
Track 10 not present in database
Track 11 not present in database
Track 12 not present in database
None of the tracks are present in the AccurateRip database
End of status report
==== Log checksum D173045E638093E2FACD7C21792F4421DE96984598D38EB84AB68AA2F19BE95F ====
 
Об исполнителе (группе)
The name Lucille has left its traces in AfroAmerican music:
B.B king gave his guitar the same name and lill' Richard wrote a Rock n' Roll anthem with the same title.
Adopting this title, Lucille's 9 piece crew has dedicated their work to Soul, Blues and Funk music, Surrounding the blend with strong Hip hop Elements. All, with one goal in mind:
Move bodies n' souls around da' globe.Lucille Crew is an international 9 piece collective, fusing element of Hip Hop, Funk and Soul.
The band is fronted by Baltimore native, MC Rebel Sun and Argentinian producer\guitarist Izzy (Isgav Dotan) and is known for its never-ending stream of collaborations with a revolving door of talented vocalists.
Lucille's music is a blend of different genres that goes from NYC's old school Hip Hop, Through the Smoky jazz clubs of New Orleans and sometimes even reaches as far as the Well-too-drunk parties of the Balkan's Gypsies and their mad horns. all pasted together by strong musicianship and one goal - Move bodies and souls around the globe.
Since started, the crew is on a non-stop live tour, including among others: 2 European tours in which they performed at a sold-out show in Germany's Reeperbahn Festival, two amazing shows in Liverpool sound City and many more...
In the wait for the European release of their new album, the band has already started working on the next one and planning their next European tour in February 2015.
Приватный:
Нет (DHT включён)
Размер:
233.97 Мб (245,338,243 байт) » файлов: 4
Участники:
0 раздают, 0 качают (0 участников всего)
Внешние участники:
1 раздают, 0 качают (1 участников всего) [ Обновить ]
Есть вопросы - пишите личное сообщение пользователю M0p94ok.
06:31
65
Нет комментариев. Ваш будет первым!