Поиск

(Funk, Soul, Pop) [CD] Ray Gaskins - Shady Lane - 1997, FLAC (image+.cue), lossless

(Funk, Soul, Pop) [CD] Ray Gaskins - Shady Lane - 1997, FLAC (image+.cue), lossless
Треклист:
Ray Gaskins / Shady Lane
Жанр: Funk, Soul, Pop
Носитель: CD
Страна-производитель диска (релиза): USA
Год издания: 1997
Издатель (лейбл): Lipstick Records
Номер по каталогу: Bean 55572
Страна исполнителя (группы): USA
Аудиокодек: FLAC (*.flac)
Тип рипа: image+.cue
Битрейт аудио: lossless
Продолжительность: 1:00:35
Источник (релизер): CD
Наличие сканов в содержимом раздачи: да
Треклист:
01 Just Imagine Me (03:50)
02 Who's Right, Who's Wrong (04:02)
03 Outstanding (07:53)
04 Yo Funky Mama (07:22)
05 Chilli Funk (04:20)
06 We Had to Say Goodbye (03:26)
07 Shady Lane (06:22)
08 Mo' Chicken (06:13)
09 Again & Again (04:46)
10 Spain (I Can Recall) (07:14)
11 P.Y. (05:24)
12 Mo' Chicken, Part 2 (03:27)
 
Лог создания рипа
Exact Audio Copy V1.0 beta 2 from 29. April 2011
Отчёт EAC об извлечении, выполненном 10. декабря 2015, 16:28
Ray Gaskins / Shady Lane
Дисковод: PLEXTOR BDDVDRPX-B330SA Adapter: 0 ID: 1
Режим чтения : Достоверность
Использование точного потока : Да
Отключение кэша аудио : Да
Использование указателей C2 : Нет
Коррекция смещения при чтении : 702
Способность читать области Lead-in и Lead-out : Нет
Заполнение пропущенных сэмплов тишиной : Да
Удаление блоков с тишиной в начале и конце : Нет
При вычислениях CRC использовались нулевые сэмплы : Да
Интерфейс : Встроенный Win32-интерфейс для Win NT/2000
Выходной формат : Пользовательский кодировщик
Выбранный битрейт : 128 kBit/s
Качество : Высокий
Добавление ID3-тега : Нет
Утилита сжатия : C:\Program Files\Exact Audio Copy\FLAC\FLAC.EXE
Дополнительные параметры : -6 -V -T "ARTIST=%artist%" -T "TITLE=%title%" -T "ALBUM=%albumtitle%" -T "DATE=%year%" -T "TRACKNUMBER=%tracknr%" -T "GENRE=%genre%" -T "COMMENT=%comment%" -T "BAND=%albuminterpret%" -T "COMPOSER=%composer%" %haslyrics%--tag-from-
TOC извлечённого CD
Трек | Старт | Длительность | Начальный сектор | Конечный сектор
---------------------------------------------------------------------
1 | 0:00.00 | 3:50.57 | 0 | 17306
2 | 3:50.57 | 4:02.45 | 17307 | 35501
3 | 7:53.27 | 4:05.28 | 35502 | 53904
4 | 11:58.55 | 7:22.22 | 53905 | 87076
5 | 19:21.02 | 4:20.33 | 87077 | 106609
6 | 23:41.35 | 3:26.10 | 106610 | 122069
7 | 27:07.45 | 6:22.67 | 122070 | 150786
8 | 33:30.37 | 6:13.18 | 150787 | 178779
9 | 39:43.55 | 4:46.17 | 178780 | 200246
10 | 44:29.72 | 7:14.43 | 200247 | 232839
11 | 51:44.40 | 5:24.02 | 232840 | 257141
12 | 57:08.42 | 3:27.23 | 257142 | 272689
Характеристики диапазона извлечения и сообщения об ошибках
Выбранный диапазон
Имя файла D:\FLAC\Ray Gaskins - Shady Lane.wav
Пиковый уровень 97.9 %
Скорость извлечения 3.0 X
Качество диапазона 100.0 %
CRC теста 3D8595B6
CRC копии 3D8595B6
Копирование... OK
Ошибок не произошло
AccurateRip: сводка
Трек 1 точность не определена (достоверность 4) [2BBA9317], AccurateRip вернул [F488A8FF] (AR v2)
Трек 2 точность не определена (достоверность 4) [EC168173], AccurateRip вернул [50FF7D7D] (AR v2)
Трек 3 точность не определена (достоверность 4) [80CEDA64], AccurateRip вернул [DC213807] (AR v2)
Трек 4 точность не определена (достоверность 4) [B418136C], AccurateRip вернул [4497F70E] (AR v2)
Трек 5 точность не определена (достоверность 4) [0FE51C8C], AccurateRip вернул [032CA6FC] (AR v2)
Трек 6 точность не определена (достоверность 4) [DFC6B72F], AccurateRip вернул [1F4A1A40] (AR v2)
Трек 7 точность не определена (достоверность 4) [3B7A0003], AccurateRip вернул [CE89BFA1] (AR v2)
Трек 8 точность не определена (достоверность 4) [31127BE5], AccurateRip вернул [101CB772] (AR v2)
Трек 9 точность не определена (достоверность 4) [843676F0], AccurateRip вернул [C2C85182] (AR v2)
Трек 10 точность не определена (достоверность 4) [B274D908], AccurateRip вернул [EF3F4D02] (AR v2)
Трек 11 точность не определена (достоверность 4) [C8921860], AccurateRip вернул [C631FCFF] (AR v2)
Трек 12 точность не определена (достоверность 4) [84F3796B], AccurateRip вернул [6CE8E85E] (AR v2)
Ни один трек не прошёл проверки на точность
В вашей базе может быть иной вариант штамповки диска
Конец отчёта
---- CUETools DB Plugin V2.1.4
[CTDB TOCID: 1.FhuHDivX1.jF2LoKrOmmiPD24-] found
Submit result: already submitted
Track | CTDB Status
1 | (7/7) Accurately ripped
2 | (7/7) Accurately ripped
3 | (7/7) Accurately ripped
4 | (7/7) Accurately ripped
5 | (7/7) Accurately ripped
6 | (7/7) Accurately ripped
7 | (7/7) Accurately ripped
8 | (7/7) Accurately ripped
9 | (7/7) Accurately ripped
10 | (7/7) Accurately ripped
11 | (6/7) Accurately ripped, or (1/7) differs in 906 samples @04:35:04-04:35:05,04:35:23,04:35:60,04:36:03-04:36:04,04:36:22-04:36:23,04:36:41,04:37:03,04:37:21-04:37:22,04:37:40-04:37:41,04:37:59,04:38:02-04:38:03,04:38:21-04:38:22,04:38:58-04:38:59,04:39:02-04:39:03,04:43:38,04:43:56,04:44:37,04:44:55-04:44:56,04:44:74,04:45:18,04:45:36-04:45:37,04:45:55-04:45:56,04:45:73-04:45:74,04:46:17-04:46:18,04:46:36-04:46:37,04:46:54-04:46:55,04:46:73-04:46:74,04:47:17-04:47:18
12 | (7/7) Accurately ripped
==== Контрольная сумма отчёта EBDC25650C1A64EBD5AF71DAC761782F8551966F339314D8A39868B92D878D21 ====
Приватный:
Нет (DHT включён)
Размер:
424.71 Мб (445,337,258 байт) » файлов: 11
Участники:
0 раздают, 0 качают (0 участников всего)
Внешние участники:
2 раздают, 1 качают (3 участников всего) [ Обновить ]
Есть вопросы - пишите личное сообщение пользователю M0p94ok.
06:30
54
Нет комментариев. Ваш будет первым!