Поиск

(Hard Bop) Herbie Mann's Californians - Great Ideas Of Western Mann (1957) - 2001, FLAC (tracks+.cue), lossless

Треклист:
Herbie Mann's Californians - Great Ideas Of Western Mann
Жанр: Hard Bop
Год выпуска диска: 2001
Производитель диска: Riverside/OJC (OJCCD-1065-2 / RLP-245)
Аудио кодек: FLAC
Тип рипа: tracks+.cue
Битрейт аудио: lossless
Продолжительность: 0:56:35
Трэклист:
01. The Theme (6:43)
02. Lady Bird (8:59)
03. Get Out Of Town (5:33)
04. Is It True What They Say About Dixie? (5:33)
05. A Handful Of Stars (7:30)
06. A Stella Performance (8:44)
07. Blues For Tomorrow (13:32)
Jack Sheldon (trumpet)
Herbie Mann (flute, bass clarinet)
Jimmy Rowles (piano)
Buddy Clark (bass)
Mel Lewis (drums)
Recorded at Capitol Tower LA July 3, 1957 --- Remestered 2001 by Joe Tarantino, Fantasy Studios Berkeley
За релиз спасибо pguppgdn
 
EAC Log
Exact Audio Copy V0.99 prebeta 4 from 23. January 2008
EAC extraction logfile from 3. October 2009, 10:56
Herbie Mann's Californians / Great Ideas Of Western Mann
Used drive : TSSTcorpCDDVDW SH-S203B Adapter: 1 ID: 1
Read mode : Secure
Utilize accurate stream : Yes
Defeat audio cache : Yes
Make use of C2 pointers : No
Read offset correction : 6
Overread into Lead-In and Lead-Out : No
Fill up missing offset samples with silence : Yes
Delete leading and trailing silent blocks : No
Null samples used in CRC calculations : Yes
Used interface : Native Win32 interface for Win NT & 2000
Gap handling : Appended to previous track
Used output format : User Defined Encoder
Selected bitrate : 768 kBit/s
Quality : High
Add ID3 tag : No
Command line compressor : C:\Program Files\Exact Audio Copy\flac.exe
Additional command line options : -6 -T "artist=%a" -T "title=%t" -T "album=%g" -T "date=%y" -T "tracknumber=%n" -T "genre=%m" %s
TOC of the extracted CD
Track | Start | Length | Start sector | End sector
---------------------------------------------------------
1 | 0:00.00 | 6:43.37 | 0 | 30261
2 | 6:43.37 | 8:59.03 | 30262 | 70689
3 | 15:42.40 | 5:32.70 | 70690 | 95659
4 | 21:15.35 | 5:33.20 | 95660 | 120654
5 | 26:48.55 | 7:29.52 | 120655 | 154381
6 | 34:18.32 | 8:43.53 | 154382 | 193659
7 | 43:02.10 | 13:32.35 | 193660 | 254594
Track 1
Filename F:\Music\Flac\Jazz\COOL\Herbie Mann\(1957) Great Ideas Of Western Mann\01 - The Theme.wav
Pre-gap length 0:00:02.00
Peak level 97.1 %
Track quality 100.0 %
Copy CRC 0B8AE71F
Cannot be verified as accurate (confidence 1) [6DC007ED], AccurateRip returned [BFB32E68]
Copy OK
Track 2
Filename F:\Music\Flac\Jazz\COOL\Herbie Mann\(1957) Great Ideas Of Western Mann\02 - Lady Bird.wav
Pre-gap length 0:00:04.32
Peak level 100.0 %
Track quality 100.0 %
Copy CRC DC840423
Cannot be verified as accurate (confidence 1) [4E01E8F2], AccurateRip returned [3779CAEE]
Copy OK
Track 3
Filename F:\Music\Flac\Jazz\COOL\Herbie Mann\(1957) Great Ideas Of Western Mann\03 - Get Out Of Town.wav
Pre-gap length 0:00:04.65
Peak level 93.3 %
Track quality 100.0 %
Copy CRC 423F9318
Cannot be verified as accurate (confidence 1) [4635EA29], AccurateRip returned [211E3D29]
Copy OK
Track 4
Filename F:\Music\Flac\Jazz\COOL\Herbie Mann\(1957) Great Ideas Of Western Mann\04 - Is It True What They Say About Dixie .wav
Pre-gap length 0:00:03.00
Peak level 98.2 %
Track quality 100.0 %
Copy CRC 3B826C9B
Cannot be verified as accurate (confidence 1) [000D3A89], AccurateRip returned [3CB55B77]
Copy OK
Track 5
Filename F:\Music\Flac\Jazz\COOL\Herbie Mann\(1957) Great Ideas Of Western Mann\05 - A Handful Of Stars.wav
Pre-gap length 0:00:03.35
Peak level 86.4 %
Track quality 100.0 %
Copy CRC A3CE010D
Cannot be verified as accurate (confidence 1) [54539FD0], AccurateRip returned [1F39D8DD]
Copy OK
Track 6
Filename F:\Music\Flac\Jazz\COOL\Herbie Mann\(1957) Great Ideas Of Western Mann\06 - A Stella Performance.wav
Pre-gap length 0:00:02.32
Peak level 91.7 %
Track quality 100.0 %
Copy CRC 027DD380
Cannot be verified as accurate (confidence 1) [E275A7A0], AccurateRip returned [DDF0553D]
Copy OK
Track 7
Filename F:\Music\Flac\Jazz\COOL\Herbie Mann\(1957) Great Ideas Of Western Mann\07 - Blues For Tomorrow.wav
Pre-gap length 0:00:03.55
Peak level 100.0 %
Track quality 100.0 %
Copy CRC 8D51E58B
Cannot be verified as accurate (confidence 1) [DBC67BB7], AccurateRip returned [B5B8DB23]
Copy OK
No tracks could be verified as accurate
You may have a different pressing from the one(s) in the database
No errors occurred
End of status report
 
Cue
REM GENRE Jazz
REM DATE 1957
REM DISCID 500D4207
REM COMMENT "ExactAudioCopy v0.99pb4"
PERFORMER "Herbie Mann's Californians"
TITLE "Great Ideas Of Western Mann"
FILE "01 - The Theme.wav" WAVE
TRACK 01 AUDIO
TITLE "The Theme"
PERFORMER "Herbie Mann's Californians"
INDEX 01 00:00:00
TRACK 02 AUDIO
TITLE "Lady Bird"
PERFORMER "Herbie Mann's Californians"
INDEX 00 06:39:05
FILE "02 - Lady Bird.wav" WAVE
INDEX 01 00:00:00
TRACK 03 AUDIO
TITLE "Get Out Of Town"
PERFORMER "Herbie Mann's Californians"
INDEX 00 08:54:13
FILE "03 - Get Out Of Town.wav" WAVE
INDEX 01 00:00:00
TRACK 04 AUDIO
TITLE "Is It True What They Say About Dixie?"
PERFORMER "Herbie Mann's Californians"
INDEX 00 05:29:70
FILE "04 - Is It True What They Say About Dixie .wav" WAVE
INDEX 01 00:00:00
TRACK 05 AUDIO
TITLE "A Handful Of Stars"
PERFORMER "Herbie Mann's Californians"
INDEX 00 05:29:60
FILE "05 - A Handful Of Stars.wav" WAVE
INDEX 01 00:00:00
TRACK 06 AUDIO
TITLE "A Stella Performance"
PERFORMER "Herbie Mann's Californians"
INDEX 00 07:27:20
FILE "06 - A Stella Performance.wav" WAVE
INDEX 01 00:00:00
TRACK 07 AUDIO
TITLE "Blues For Tomorrow"
PERFORMER "Herbie Mann's Californians"
INDEX 00 08:39:73
FILE "07 - Blues For Tomorrow.wav" WAVE
INDEX 01 00:00:00
14:12
284
Нет комментариев. Ваш будет первым!