Поиск

(Guitar Jazz, Avantgarde) John Zorn - Masada Guitars - 2003, APE (image + .cue), lossless

John Zorn - Masada Guitars
Жанр: Guitar Jazz, Avantgarde
Год выпуска: 2003
Формат: APE (image + .cue)
Битрейт аудио: lossless
Продолжительность: 1:14:27
Трэклист:
1 ABIDAN (Frisell) --------3:31
2 KODASHIM (Sparks)----3:37
3 KEDEM (Ribot)-----------3:29
4 BIKKURIM (Frisell)------3:00
5 RAVAYAH (Sparks)------4:01
6 HADASHA (Ribot)--------2:45
7 KATZKATZ (Frisell) -------3:37
8 KANAH (Sparks)------3:27
9 HODAAH (Ribot) -------3:24
10 KISOFIM (Frisell)-------4:53
11 SIPPUR (Sparks)------2:48
12 SANSANAH (Ribot)--------5:54
13 GALGALIM (Ribot)--------1:45
14 ELILAH (Frisell) -------3:05
15 KEDUSHAH (Sparks)----4:32
16 SHEVET (Ribot)------3:11
17 KOCHOT (Frisell) -----3:56
18 TZALIM (Ribot)------2:21
19 KIVAH (Ribot)------2:33
20 AVELUT (Frisell) -----4:05
21 MOSHAV (Ribot)------3:54
-----------------------------1:14:27
Исполнители:
Guitars by:
BILL FRISELL MARC RIBOT TIM SPARKS
All compositions by John Zorn
All tracks arranged and produced by the artists
Bill Frisell's tracks recorded by Tucker Martine
Marc Ribot's tracks recorded by Francois Ladneau
Tim Sparks' tracks recorded by Rod Volker
Mastered by Scott Hull at Hit Factory Mastering, NYC
K2 Technology by JVC Disc America
Executive Producer - John Zorn
Associate Producer - Kazunori Sugiyama
 
скрытый текст
Exact Audio Copy V0.99 prebeta 4 from 23. January 2008
Отчёт EAC об извлечении, выполненном 14. марта 2008, 15:50
John Zorn / Masada Guitars
Дисковод: Optiarc DVD RW AD-7173A Adapter: 0 ID: 0
Режим чтения : Достоверность
Использование точного потока : Да
Отключение кэша аудио : Да
Использование указателей C2 : Нет
Коррекция смещения при чтении : 48
Способность читать области Lead-in и Lead-out : Нет
Заполнение пропущенных сэмплов тишиной : Да
Удаление блоков с тишиной в начале и конце : Нет
При вычислениях CRC использовались нулевые сэмплы : Нет
Интерфейс : Установленный внешний ASPI-интерфейс
Выходной формат : Внутренние WAV-операции
Формат сэмплов : 44.100 Гц; 16 бит; стерео
TOC извлечённого CD
Трек | Старт | Длительность | Начальный сектор | Конечный сектор
---------------------------------------------------------------------
1 | 0:00.00 | 3:31.70 | 0 | 15894
2 | 3:31.70 | 3:37.52 | 15895 | 32221
3 | 7:09.47 | 3:30.66 | 32222 | 48037
4 | 10:40.38 | 3:02.52 | 48038 | 61739
5 | 13:43.15 | 4:03.39 | 61740 | 80003
6 | 17:46.54 | 2:48.16 | 80004 | 92619
7 | 20:34.70 | 3:38.32 | 92620 | 109001
8 | 24:13.27 | 3:29.22 | 109002 | 124698
9 | 27:42.49 | 3:25.36 | 124699 | 140109
10 | 31:08.10 | 4:56.20 | 140110 | 162329
11 | 36:04.30 | 2:51.12 | 162330 | 175166
12 | 38:55.42 | 5:56.69 | 175167 | 201935
13 | 44:52.36 | 1:49.43 | 201936 | 210153
14 | 46:42.04 | 3:06.13 | 210154 | 224116
15 | 49:48.17 | 4:34.48 | 224117 | 244714
16 | 54:22.65 | 3:14.04 | 244715 | 259268
17 | 57:36.69 | 3:58.50 | 259269 | 277168
18 | 61:35.44 | 2:22.65 | 277169 | 287883
19 | 63:58.34 | 2:36.17 | 287884 | 299600
20 | 66:34.51 | 4:08.32 | 299601 | 318232
21 | 70:43.08 | 3:54.03 | 318233 | 335785
Характеристики диапазона извлечения и сообщения об ошибках
Выбранный диапазон
Имя файла C:\Documents and Settings\ARM_Video\Мои документы\Моя музыка\John Zorn - Masada Guitars.wav
Пиковый уровень 100.0 %
Качество диапазона 99.9 %
CRC копии 0A1B0755
Копирование... OK
Ошибок не произошло
Конец отчёта
База данных компакт-дисков Freedb определяет это издание как Avantgarde. Но не верьте им! Уж если на то пошло, то этот диск - гораздо ближе к классической музыке, чем к джазу (и, надеюсь, когда-нибудь станет классикой!). Три гитариста, хорошо знакомые всему миру джаза (и не только джаза), представляют нам очередной замысел неугомонного Джона Зорна, живой классики джаз-авангарда. Звук акустической гитары, да ещё играющей в одиночестве, способен заставить сопереживать даже ненавистников нового в музыке!
Скачивание доступно после регистрации!!
Приватный:
Нет (DHT включён)
Размер:
340.90 Мб (357,464,144 байт) » файлов: 9
Участники:
0 раздают, 0 качают (0 участников всего)
Внешние участники:
1 раздают, 0 качают (1 участников всего) [ Обновить ]
01:37
362
Нет комментариев. Ваш будет первым!