Поиск

2002 Arturo Sandoval - My Passion For The Piano {Columbia} [CD]

2002 Arturo Sandoval - My Passion For The Piano {Columbia} [CD]
Место записи:
Turi's Music Recording Studio, Miami Springs, FL
Дата издания диска:
12 марта 2002
Издатель (лейбл):
Носитель:
CD
Тип рипа:
image+.cue
Аудиокодек:
FLAC (*.flac)
Битрейт аудио:
lossless
Время звучания:
01:07:37
Наличие сканов:
да
01. Blue In F 06:36
02. Romantico 05:28
03. Departure 05:17
04. Este Tarde Vi Llover 04:49
05. All The Things You Are 08:58
06. Surena 04:44
07. Stella By Starlight 04:08
08. Time Before 06:31
09. Marianela Says Goodbye 04:31
10. D.A.S.S. 04:21
11. Windmills Of Your Mind 06:20
12. Blues En Fa 05:54
Состав:
  • Ed Calle     Saxophone
  • Mike Fuller     Mastering
  • David Heuer     Assistant Engineer
  • Dennis Marks     Bass, Composer
  • Arturo Sandoval     Composer, Design, Package Art Direction, Piano, Producer
  • Ernesto Simpson     Drums
  • Ron Taylor     Engineer, Mixing
  • Samuel Torres     Percussion
Лог создания рипа
Exact Audio Copy V0.99 prebeta 1 from 25. May 2007
Отчёт EAC об извлечении, выполненном 14. марта 2008, 23:30
Arturo Sandoval / My Passion For The Piano
Дисковод: _NEC DVD_RW ND-3500AG Adapter: 1 ID: 1
Режим чтения : Достоверность
Использование точного потока : Да
Отключение кэша аудио : Да
Использование указателей C2 : Нет
Коррекция смещения при чтении : 48
Способность читать области Lead-in и Lead-out : Нет
Заполнение пропущенных сэмплов тишиной : Да
Удаление блоков с тишиной в начале и конце : Нет
Интерфейс : Установленный внешний ASPI-интерфейс
Выходной формат : Внутренние WAV-операции
Формат сэмплов : 44.100 Гц; 16 бит; стерео
TOC извлечённого CD
Трек | Старт | Длительность | Начальный сектор | Конечный сектор
---------------------------------------------------------------------
1 | 0:00.00 | 6:36.58 | 0 | 29757
2 | 6:36.58 | 5:28.15 | 29758 | 54372
3 | 12:04.73 | 5:17.23 | 54373 | 78170
4 | 17:22.21 | 4:49.74 | 78171 | 99919
5 | 22:12.20 | 8:58.53 | 99920 | 140322
6 | 31:10.73 | 4:44.48 | 140323 | 161670
7 | 35:55.46 | 4:08.37 | 161671 | 180307
8 | 40:04.08 | 6:31.12 | 180308 | 209644
9 | 46:35.20 | 4:31.50 | 209645 | 230019
10 | 51:06.70 | 4:21.21 | 230020 | 249615
11 | 55:28.16 | 6:20.66 | 249616 | 278181
12 | 61:49.07 | 5:54.18 | 278182 | 304749
Характеристики диапазона извлечения и сообщения об ошибках
Выбранный диапазон
Имя файла R:\M U S I C\LOSSLES NO\Arturo Sandoval\My Passion For The Piano\Arturo Sandoval - My Passion For The Piano.wav
Пиковый уровень 99.9 %
Качество диапазона 100.0 %
CRC копии 531B129C
Копирование... OK
Ошибок не произошло
Конец отчёта
01:38
534
Нет комментариев. Ваш будет первым!