Поиск

(Fusion, Hard Bop) [CD] Terumasa Hino - Spark - 1994 (Japan Edition), FLAC (tracks+.cue), lossless

(Fusion, Hard Bop) [CD] Terumasa Hino - Spark - 1994 (Japan Edition), FLAC (tracks+.cue), lossless
Terumasa Hino - Spark
Жанр: Fusion, Hard Bop
Носитель: CD
Страна-производитель диска: Япония
Год издания: 1994
Издатель (лейбл): Somethin' Else
Номер по каталогу: TOCJ-5563
Аудиокодек: FLAC (*.flac)
Тип рипа: tracks+.cue
Битрейт аудио: lossless
Продолжительность: 56:52
Источник (релизер): JJKWCD (what)
Наличие сканов в содержимом раздачи: да
Треклист:
01. Song for My Father (Silver) - 6:49
02. Tribe (Hino) - 8:54
03. Suavemente (Hino) - 7:32
04. Monday Night Village Gate (Hino) - 4:36
05. Culcutta Cutie (Silver) - 7:21
06. Art Blakey (Hino) - 5:43
07. Moonbow (Hino) - 7:33
08. Camelback (Hino) - 5:45
09. Obatala (Rumba Yeza) (Trad.) - 2:39
Состав:
Terumasa Hino - trumpet
Tatsuya Sato - tenor saxophone (#1,2,4-6,8)
Jay Hoggard - marimba, vibraphone
Benisuke Sakai - bass (#1-8)
Kenji Hino - electric bass (#1-3,6-8)
Motohiko Hino - drums (#1-8)
Don Alias, Tatsuji Yokoyama, Mark DeRose - percussion
Hiromasa Suzuki - synthesizer (#3)
Takeaki Sugiyama - synthesizer programming (#3)
Chorus (#9):
Terumasa, Tatsuya, Benisuke, Kenji, Motohiko, Don, Tatsuji, Mark, Hiromasa, Name, Yoshiko, Shima, Pi-chiku, Tabuchi, Inoue, Araki, Fujiuchi
Produced by Terumasa Hino.
Recorded at Crescente Studio, Tokyo on March 9-11, 1994.
 
Лог создания рипа
Exact Audio Copy V1.0 beta 3 from 29. August 2011
EAC extraction logfile from 30. June 2014, 6:00
Terumasa Hino / Spark
Used drive : HL-DT-STDVDRAM GH24NS50 Adapter: 2 ID: 1
Read mode : Secure
Utilize accurate stream : Yes
Defeat audio cache : Yes
Make use of C2 pointers : No
Read offset correction : 667
Overread into Lead-In and Lead-Out : No
Fill up missing offset samples with silence : Yes
Delete leading and trailing silent blocks : No
Null samples used in CRC calculations : Yes
Used interface : Native Win32 interface for Win NT & 2000
Gap handling : Appended to previous track
Used output format : User Defined Encoder
Selected bitrate : 1024 kBit/s
Quality : High
Add ID3 tag : No
Command line compressor : D:\Program Files\FLAC\flac.exe
Additional command line options : -8 -V -T "ARTIST=%artist%" -T "TITLE=%title%" -T "ALBUM=%albumtitle%" -T "DATE=%year%" -T "TRACKNUMBER=%tracknr%" -T "TOTALTRACKS=%numtracks%" -T "GENRE=%genre%" -T "ALBUMARTIST=%albumartist%" -T "ALBUM ARTIST=%albumartist%" -T "COMMENT=EAC Secure Mode, Test & Copy, AccurateRip, FLAC -8" %source%
TOC of the extracted CD
Track | Start | Length | Start sector | End sector
---------------------------------------------------------
1 | 0:00.00 | 6:49.20 | 0 | 30694
2 | 6:49.20 | 8:53.62 | 30695 | 70731
3 | 15:43.07 | 7:31.38 | 70732 | 104594
4 | 23:14.45 | 4:36.30 | 104595 | 125324
5 | 27:51.00 | 7:21.00 | 125325 | 158399
6 | 35:12.00 | 5:43.07 | 158400 | 184131
7 | 40:55.07 | 7:32.63 | 184132 | 218094
8 | 48:27.70 | 5:44.62 | 218095 | 243956
9 | 54:12.57 | 2:39.10 | 243957 | 255891
Track 1
Filename D:\日野皓正 - (1994) Spark (TOCJ-5563) [FLAC]\01 - Song for My Father.wav
Pre-gap length 0:00:02.00
Peak level 99.7 %
Extraction speed 1.1 X
Track quality 100.0 %
Test CRC 8C0C47A2
Copy CRC 8C0C47A2
Accurately ripped (confidence 1) [CB604F3E] (AR v1)
Copy OK
Track 2
Filename D:\日野皓正 - (1994) Spark (TOCJ-5563) [FLAC]\02 - Tribe.wav
Pre-gap length 0:00:00.50
Peak level 100.0 %
Extraction speed 1.3 X
Track quality 99.9 %
Test CRC 9FA905ED
Copy CRC 9FA905ED
Accurately ripped (confidence 1) [02949745] (AR v1)
Copy OK
Track 3
Filename D:\日野皓正 - (1994) Spark (TOCJ-5563) [FLAC]\03 - Suavemente.wav
Pre-gap length 0:00:01.12
Peak level 97.4 %
Extraction speed 1.4 X
Track quality 99.9 %
Test CRC 1689287B
Copy CRC 1689287B
Accurately ripped (confidence 1) [E5BEC2CB] (AR v2)
Copy OK
Track 4
Filename D:\日野皓正 - (1994) Spark (TOCJ-5563) [FLAC]\04 - Monday Night Village Gate.wav
Pre-gap length 0:00:01.38
Peak level 97.2 %
Extraction speed 1.6 X
Track quality 100.0 %
Test CRC 97698BD3
Copy CRC 97698BD3
Accurately ripped (confidence 1) [F341F45A] (AR v2)
Copy OK
Track 5
Filename D:\日野皓正 - (1994) Spark (TOCJ-5563) [FLAC]\05 - Culcutta Cutie.wav
Pre-gap length 0:00:01.00
Peak level 98.4 %
Extraction speed 1.8 X
Track quality 100.0 %
Test CRC 26C5451C
Copy CRC 26C5451C
Accurately ripped (confidence 1) [38C269C6] (AR v2)
Copy OK
Track 6
Filename D:\日野皓正 - (1994) Spark (TOCJ-5563) [FLAC]\06 - Art Blakey.wav
Pre-gap length 0:00:00.63
Peak level 91.2 %
Extraction speed 1.9 X
Track quality 100.0 %
Test CRC 0C9C76F0
Copy CRC 0C9C76F0
Accurately ripped (confidence 1) [792A30FA] (AR v2)
Copy OK
Track 7
Filename D:\日野皓正 - (1994) Spark (TOCJ-5563) [FLAC]\07 - Moonbow.wav
Pre-gap length 0:00:01.00
Peak level 87.6 %
Extraction speed 1.9 X
Track quality 99.9 %
Test CRC 04787E3E
Copy CRC 04787E3E
Accurately ripped (confidence 1) [A2CB9230] (AR v2)
Copy OK
Track 8
Filename D:\日野皓正 - (1994) Spark (TOCJ-5563) [FLAC]\08 - Camel Back.wav
Peak level 93.7 %
Extraction speed 2.1 X
Track quality 100.0 %
Test CRC 317581A3
Copy CRC 317581A3
Accurately ripped (confidence 1) [20F45140] (AR v2)
Copy OK
Track 9
Filename D:\日野皓正 - (1994) Spark (TOCJ-5563) [FLAC]\09 - Obatala (Rumba Yeza).wav
Pre-gap length 0:00:02.00
Peak level 94.5 %
Extraction speed 2.0 X
Track quality 100.0 %
Test CRC 96F88FCB
Copy CRC 96F88FCB
Accurately ripped (confidence 1) [C2AEE12E] (AR v2)
Copy OK
All tracks accurately ripped
No errors occurred
End of status report
---- CUETools DB Plugin V2.1.3
[CTDB TOCID: J2C9yDHbUgJnOrJsYCifvGunOQE-] disk not present in database, Submit result: J2C9yDHbUgJnOrJsYCifvGunOQE- has been uploaded
==== Log checksum 59DCD60193660F1846AF2A46E3BA28B86F5E9EFB075DF656049E567674F31339 ====
 
Содержание индексной карты (.CUE)
REM GENRE Jazz
REM DATE 1994
REM DISCID 7A0D5309
REM COMMENT "ExactAudioCopy v1.0b3"
PERFORMER "Terumasa Hino"
TITLE "Spark"
FILE "01 - Song for My Father.wav" WAVE
TRACK 01 AUDIO
TITLE "Song for My Father"
PERFORMER "Terumasa Hino"
INDEX 01 00:00:00
TRACK 02 AUDIO
TITLE "Tribe"
PERFORMER "Terumasa Hino"
INDEX 00 06:48:45
FILE "02 - Tribe.wav" WAVE
INDEX 01 00:00:00
TRACK 03 AUDIO
TITLE "Suavemente"
PERFORMER "Terumasa Hino"
INDEX 00 08:52:50
FILE "03 - Suavemente.wav" WAVE
INDEX 01 00:00:00
TRACK 04 AUDIO
TITLE "Monday Night Village Gate"
PERFORMER "Terumasa Hino"
INDEX 00 07:30:00
FILE "04 - Monday Night Village Gate.wav" WAVE
INDEX 01 00:00:00
TRACK 05 AUDIO
TITLE "Culcutta Cutie"
PERFORMER "Terumasa Hino"
INDEX 00 04:35:30
FILE "05 - Culcutta Cutie.wav" WAVE
INDEX 01 00:00:00
TRACK 06 AUDIO
TITLE "Art Blakey"
PERFORMER "Terumasa Hino"
INDEX 00 07:20:12
FILE "06 - Art Blakey.wav" WAVE
INDEX 01 00:00:00
TRACK 07 AUDIO
TITLE "Moonbow"
PERFORMER "Terumasa Hino"
INDEX 00 05:42:07
FILE "07 - Moonbow.wav" WAVE
INDEX 01 00:00:00
FILE "08 - Camelback.wav" WAVE
TRACK 08 AUDIO
TITLE "Camelback"
PERFORMER "Terumasa Hino"
INDEX 01 00:00:00
TRACK 09 AUDIO
TITLE "Obatala (Rumba Yeza)"
PERFORMER "Terumasa Hino"
INDEX 00 05:42:62
FILE "09 - Obatala (Rumba Yeza).wav" WAVE
INDEX 01 00:00:00
 
Отчет CUETools
[CUETools log; Date: 15.07.2014 1:27:28; Version: 2.1.4]
[CTDB TOCID: J2C9yDHbUgJnOrJsYCifvGunOQE-] found.
Track | CTDB Status
1 | (1/1) Accurately ripped
2 | (1/1) Accurately ripped
3 | (1/1) Accurately ripped
4 | (1/1) Accurately ripped
5 | (1/1) Accurately ripped
6 | (1/1) Accurately ripped
7 | (1/1) Accurately ripped
8 | (1/1) Accurately ripped
9 | (1/1) Accurately ripped
[AccurateRip ID: 00153ccf-009975f9-7a0d5309] found.
Track [ CRC | V2 ] Status
01 [cb604f3e|eefeb824] (1+0/2) Accurately ripped
02 [02949745|8e6d1f7b] (1+0/2) Accurately ripped
03 [9ff8aff9|e5bec2cb] (1+1/2) Accurately ripped
04 [bd93dfef|f341f45a] (1+1/2) Accurately ripped
05 [6d637fde|38c269c6] (1+1/2) Accurately ripped
06 [a81e2906|792a30fa] (1+1/2) Accurately ripped
07 [7b9c47df|a2cb9230] (1+1/2) Accurately ripped
08 [11b64ea9|20f45140] (1+1/2) Accurately ripped
09 [218d376f|c2aee12e] (1+1/2) Accurately ripped
Track Peak [ CRC32 ] [W/O NULL] [ LOG ]
-- 100,0 [79A110B0] [27AE5329]
01 99,7 [8C0C47A2] [04914BBF] CRC32
02 100,0 [9FA905ED] [338120BB] CRC32
03 97,4 [1689287B] [D2589291] CRC32
04 97,2 [97698BD3] [83783E97] CRC32
05 98,4 [26C5451C] [AD3D7A81] CRC32
06 91,2 [0C9C76F0] [EB6C2913] CRC32
07 87,6 [04787E3E] [2344958C] CRC32
08 93,7 [317581A3] [C7878BE0] CRC32
09 94,5 [96F88FCB] [479DEB7B] CRC32
 
Review by Scott Yanow
This is one of trumpeter Terumasa Hino's more interesting releases. Hino often sounds like an exact duplicate of Freddie Hubbard in his prime on the more hard bop-oriented pieces while mixing in a bit of Miles Davis with Hubbard on the funkier numbers. He is joined by a fine Japanese group (in addition to Jay Hoggard on marimbas and vibes and percussionist Don Alias) which includes two percussionists who keep the rhythms torrid; Hoggard (particularly on marimbas) is a major part of the ensembles. Highlights include memorable versions of Horace Silver's "Song for My Father" (which is given funky Latin rhythms) and Silver's neglected "Calcutta Cutie." Other than the tribute, "Art Blakey," most of the other performances utilize rhythmic vamps while "Suavemente" features the trumpeter's expressive long tones over a synthesizer. Every selection holds one's interest, making this one of Terumasa Hino's most rewarding recordings to date.
09:47
744
Нет комментариев. Ваш будет первым!