Поиск

(Fusion, Hard Bop) [CD] Terumasa Hino - Dragon - 2005 (Japan Edition), FLAC (tracks+.cue), lossless

(Fusion, Hard Bop) [CD] Terumasa Hino - Dragon - 2005 (Japan Edition), FLAC (tracks+.cue), lossless
Terumasa Hino - Dragon
Жанр: Fusion, Hard Bop
Носитель: CD
Страна-производитель диска: Япония
Год издания: 2005
Издатель (лейбл): Sony Records
Номер по каталогу: SICP-10014
Аудиокодек: FLAC (*.flac)
Тип рипа: tracks+.cue
Битрейт аудио: lossless
Продолжительность: 65:17
Источник (релизер): JJKWCD (what)
Наличие сканов в содержимом раздачи: да
Треклист:
01. Mongolian Dragon (Hino) - 11:26
02. All You Are & More (Hino) - 6:51
03. Dream of Asia (Hino) - 5:24
04. Hub's Spring (Hino) - 6:10
05. Big Foot (Hino) - 12:11
06. Sir Roland Hanna (Hino) - 5:07
07. Beam (Hino) - 4:55
08. Why Knot (Hino) - 6:25
09. Invocation (Hino) - 3:19
10. Cubic (Hino) - 3:29
Состав:
Terumasa Hino - trumpet, cymbal (#9)
Seiji Tada - alto saxophone, soprano saxophone
Jung Chic Lee - tenor saxophone
Akira Ishii - piano
Hideaki Kanazawa - bass
Koichi Inoue - drums
Recorded at Shanghai Broadcast Building No.3 Studio on February 16-18, 2005.
 
Лог создания рипа
Exact Audio Copy V1.0 beta 3 from 29. August 2011
EAC extraction logfile from 1. July 2014, 6:21
Terumasa Hino / Dragon
Used drive : HL-DT-STDVDRAM GH24NS50 Adapter: 2 ID: 1
Read mode : Secure
Utilize accurate stream : Yes
Defeat audio cache : Yes
Make use of C2 pointers : No
Read offset correction : 667
Overread into Lead-In and Lead-Out : No
Fill up missing offset samples with silence : Yes
Delete leading and trailing silent blocks : No
Null samples used in CRC calculations : Yes
Used interface : Native Win32 interface for Win NT & 2000
Gap handling : Appended to previous track
Used output format : User Defined Encoder
Selected bitrate : 1024 kBit/s
Quality : High
Add ID3 tag : No
Command line compressor : D:\Program Files\FLAC\flac.exe
Additional command line options : -8 -V -T "ARTIST=%artist%" -T "TITLE=%title%" -T "ALBUM=%albumtitle%" -T "DATE=%year%" -T "TRACKNUMBER=%tracknr%" -T "TOTALTRACKS=%numtracks%" -T "GENRE=%genre%" -T "ALBUMARTIST=%albumartist%" -T "ALBUM ARTIST=%albumartist%" -T "COMMENT=EAC Secure Mode, Test & Copy, AccurateRip, FLAC -8" %source%
TOC of the extracted CD
Track | Start | Length | Start sector | End sector
---------------------------------------------------------
1 | 0:00.00 | 11:25.47 | 0 | 51421
2 | 11:25.47 | 6:51.15 | 51422 | 82261
3 | 18:16.62 | 5:24.00 | 82262 | 106561
4 | 23:40.62 | 6:09.43 | 106562 | 134279
5 | 29:50.30 | 12:11.22 | 134280 | 189126
6 | 42:01.52 | 5:06.55 | 189127 | 212131
7 | 47:08.32 | 4:55.05 | 212132 | 234261
8 | 52:03.37 | 6:24.73 | 234262 | 263134
9 | 58:28.35 | 3:18.47 | 263135 | 278031
10 | 61:47.07 | 3:29.20 | 278032 | 293726
Track 1
Filename D:\Terumasa Hino - (2005) Dragon (SICP-10014) [FLAC]\01 - Mongolian Dragon.wav
Pre-gap length 0:00:02.00
Peak level 100.0 %
Extraction speed 1.4 X
Track quality 100.0 %
Test CRC 3631816C
Copy CRC 3631816C
Accurately ripped (confidence 3) [D615BFE3] (AR v2)
Copy OK
Track 2
Filename D:\Terumasa Hino - (2005) Dragon (SICP-10014) [FLAC]\02 - All You Are & More.wav
Peak level 100.0 %
Extraction speed 1.6 X
Track quality 100.0 %
Test CRC C6D89F97
Copy CRC C6D89F97
Accurately ripped (confidence 3) [308BD1D9] (AR v2)
Copy OK
Track 3
Filename D:\Terumasa Hino - (2005) Dragon (SICP-10014) [FLAC]\03 - Dream of Asia.wav
Pre-gap length 0:00:01.22
Peak level 100.0 %
Extraction speed 1.5 X
Track quality 99.9 %
Test CRC 13A380C3
Copy CRC 13A380C3
Accurately ripped (confidence 3) [3583E265] (AR v2)
Copy OK
Track 4
Filename D:\Terumasa Hino - (2005) Dragon (SICP-10014) [FLAC]\04 - Hub Spring.wav
Peak level 94.4 %
Extraction speed 1.9 X
Track quality 100.0 %
Test CRC 8295EE77
Copy CRC 8295EE77
Accurately ripped (confidence 3) [C9679042] (AR v2)
Copy OK
Track 5
Filename D:\Terumasa Hino - (2005) Dragon (SICP-10014) [FLAC]\05 - Big Foot.wav
Pre-gap length 0:00:01.50
Peak level 100.0 %
Extraction speed 2.0 X
Track quality 99.9 %
Test CRC FFF776A4
Copy CRC FFF776A4
Accurately ripped (confidence 3) [117169CB] (AR v2)
Copy OK
Track 6
Filename D:\Terumasa Hino - (2005) Dragon (SICP-10014) [FLAC]\06 - Sir Roland Hanna.wav
Pre-gap length 0:00:01.70
Peak level 100.0 %
Extraction speed 1.9 X
Track quality 99.9 %
Test CRC E2860C15
Copy CRC E2860C15
Accurately ripped (confidence 3) [7507FD03] (AR v2)
Copy OK
Track 7
Filename D:\Terumasa Hino - (2005) Dragon (SICP-10014) [FLAC]\07 - Beam.wav
Pre-gap length 0:00:01.37
Peak level 100.0 %
Extraction speed 2.2 X
Track quality 100.0 %
Test CRC CEFB755D
Copy CRC CEFB755D
Accurately ripped (confidence 3) [67773B85] (AR v2)
Copy OK
Track 8
Filename D:\Terumasa Hino - (2005) Dragon (SICP-10014) [FLAC]\08 - Why Not.wav
Pre-gap length 0:00:01.52
Peak level 100.0 %
Extraction speed 2.4 X
Track quality 100.0 %
Test CRC D761D528
Copy CRC D761D528
Accurately ripped (confidence 3) [B82BA655] (AR v2)
Copy OK
Track 9
Filename D:\Terumasa Hino - (2005) Dragon (SICP-10014) [FLAC]\09 - Invocation.wav
Pre-gap length 0:00:01.70
Peak level 100.0 %
Extraction speed 2.3 X
Track quality 100.0 %
Test CRC 76157C15
Copy CRC 76157C15
Accurately ripped (confidence 3) [9ED23789] (AR v2)
Copy OK
Track 10
Filename D:\Terumasa Hino - (2005) Dragon (SICP-10014) [FLAC]\10 - Cubic.wav
Pre-gap length 0:00:01.52
Peak level 100.0 %
Extraction speed 2.4 X
Track quality 100.0 %
Test CRC C7D9D705
Copy CRC C7D9D705
Accurately ripped (confidence 3) [D17A5F4C] (AR v2)
Copy OK
All tracks accurately ripped
No errors occurred
End of status report
---- CUETools DB Plugin V2.1.3
[CTDB TOCID: aqJzylD9Wwg9giGwGch3VYu.DUo-] found, Submit result: aqJzylD9Wwg9giGwGch3VYu.DUo- has been confirmed
[cea5267b] (2/2) Accurately ripped
==== Log checksum C8EC39E14655F849B28576CC6E7955542E4CE7F20C6B2C6F91AEBDCD556C650C ====
 
Содержание индексной карты (.CUE)
REM GENRE Jazz
REM DATE 2005
REM DISCID 850F4C0A
REM COMMENT "ExactAudioCopy v1.0b3"
PERFORMER "Terumasa Hino"
TITLE "Dragon"
FILE "01 - Mongolian Dragon.wav" WAVE
TRACK 01 AUDIO
TITLE "Mongolian Dragon"
PERFORMER "Terumasa Hino"
INDEX 01 00:00:00
FILE "02 - All You Are & More.wav" WAVE
TRACK 02 AUDIO
TITLE "All You Are & More"
PERFORMER "Terumasa Hino"
INDEX 01 00:00:00
TRACK 03 AUDIO
TITLE "Dream of Asia"
PERFORMER "Terumasa Hino"
INDEX 00 06:49:68
FILE "03 - Dream of Asia.wav" WAVE
INDEX 01 00:00:00
FILE "04 - Hub's Spring.wav" WAVE
TRACK 04 AUDIO
TITLE "Hub's Spring"
PERFORMER "Terumasa Hino"
INDEX 01 00:00:00
TRACK 05 AUDIO
TITLE "Big Foot"
PERFORMER "Terumasa Hino"
INDEX 00 06:07:68
FILE "05 - Big Foot.wav" WAVE
INDEX 01 00:00:00
TRACK 06 AUDIO
TITLE "Sir Roland Hanna"
PERFORMER "Terumasa Hino"
INDEX 00 12:09:27
FILE "06 - Sir Roland Hanna.wav" WAVE
INDEX 01 00:00:00
TRACK 07 AUDIO
TITLE "Beam"
PERFORMER "Terumasa Hino"
INDEX 00 05:05:18
FILE "07 - Beam.wav" WAVE
INDEX 01 00:00:00
TRACK 08 AUDIO
TITLE "Why Knot"
PERFORMER "Terumasa Hino"
INDEX 00 04:53:28
FILE "08 - Why Knot.wav" WAVE
INDEX 01 00:00:00
TRACK 09 AUDIO
TITLE "Invocation"
PERFORMER "Terumasa Hino"
INDEX 00 06:23:03
FILE "09 - Invocation.wav" WAVE
INDEX 01 00:00:00
TRACK 10 AUDIO
TITLE "Cubic"
PERFORMER "Terumasa Hino"
INDEX 00 03:16:70
FILE "10 - Cubic.wav" WAVE
INDEX 01 00:00:00
 
Отчет CUETools
[CUETools log; Date: 15.07.2014 1:49:02; Version: 2.1.4]
[CTDB TOCID: aqJzylD9Wwg9giGwGch3VYu.DUo-] found.
Track | CTDB Status
1 | (3/3) Accurately ripped
2 | (3/3) Accurately ripped
3 | (3/3) Accurately ripped
4 | (3/3) Accurately ripped
5 | (3/3) Accurately ripped
6 | (3/3) Accurately ripped
7 | (3/3) Accurately ripped
8 | (3/3) Accurately ripped
9 | (3/3) Accurately ripped
10 | (3/3) Accurately ripped
[AccurateRip ID: 001c26cd-00da83d1-850f4c0a] found.
Track [ CRC | V2 ] Status
01 [784c4df2|d615bfe3] (0+3/3) Accurately ripped
02 [274f4d9c|308bd1d9] (0+3/3) Accurately ripped
03 [d22b3af7|3583e265] (0+3/3) Accurately ripped
04 [e2c3c01b|c9679042] (0+3/3) Accurately ripped
05 [ed720826|117169cb] (0+3/3) Accurately ripped
06 [64ae34d9|7507fd03] (0+3/3) Accurately ripped
07 [3e5a2e89|67773b85] (0+3/3) Accurately ripped
08 [bfda368b|b82ba655] (0+3/3) Accurately ripped
09 [74e86d6e|9ed23789] (0+3/3) Accurately ripped
10 [f430d828|d17a5f4c] (0+3/3) Accurately ripped
Track Peak [ CRC32 ] [W/O NULL] [ LOG ]
-- 100,0 [6DD01BE5] [BC9E8918]
01 100,0 [3631816C] [3E9F9F89] CRC32
02 100,0 [C6D89F97] [28E170CB] CRC32
03 100,0 [13A380C3] [756F9CAA] CRC32
04 94,4 [8295EE77] [9A2C1C7A] CRC32
05 100,0 [FFF776A4] [C2CB067F] CRC32
06 100,0 [E2860C15] [F210468C] CRC32
07 100,0 [CEFB755D] [5EEEBDBF] CRC32
08 100,0 [D761D528] [DE675232] CRC32
09 100,0 [76157C15] [F24F578C] CRC32
10 100,0 [C7D9D705] [A5DE2F41] CRC32
09:47
798
Нет комментариев. Ваш будет первым!