Поиск

(Fusion, Ethnic jazz) [CD] Djabe - Unplugged at the New Orleans 2002 - 2003 (Gramy), FLAC (image+.cue), lossless

(Fusion, Ethnic jazz) [CD] Djabe - Unplugged at the New Orleans 2002 - 2003 (Gramy), FLAC (image+.cue), lossless

Djabe - Unplugged at the New Orleans 2002 - 2003 (Gramy)
В 2002 году Djabe дали серию концертов в будапештском джазовом клубе New Orleans, причём сет-лист менялся практически полностью на каждом из 8-ми концертов. Два последних концерта были акустическими, записи с них и вошли в этот диск
Жанр: Fusion, Ethnic jazz
Носитель: CD (live)
Страна-производитель диска (релиза): Hungary
Год издания: 2003
Издатель (лейбл): Gramy Records
Номер по каталогу: GR-047
Страна исполнителя (группы): Hungary
Дата / место записи: Club "New Orleans", Budapesht, Hungary, 2002
Аудио кодек: FLAC (*.flac)
Тип рипа: (image+ .cue)
Битрейт аудио: lossless
Наличие сканов в содержимом раздачи: full scans, jpeg, 300 dpi
Продолжительность: 1:48:02
Источник (релизер): все благодарности - vagabondo (и форуму e-rock.ru)
 
CD1
Трэклист:
1. Summer in Zemplen
2. First Step
3. Ode
4. Sorcerer
5. Village of the Sun
6. Fug ennekhel
7. Witchi Tai To
8. Caravan
9. Passage
10. Venezia
 
Лог создания рипа (22. июля 2010)
Exact Audio Copy V0.99 prebeta 5 from 4. May 2009
Отчёт EAC об извлечении, выполненном 22. июля 2010, 18:02
Djabe / Unplugged At The New Orleans (CD1)
Дисковод: Optiarc DVD RW AD-7200A Adapter: 1 ID: 0
Режим чтения : Достоверность
Использование точного потока : Да
Отключение кэша аудио : Да
Использование указателей C2 : Нет
Коррекция смещения при чтении : 48
Способность читать области Lead-in и Lead-out : Нет
Заполнение пропущенных сэмплов тишиной : Да
Удаление блоков с тишиной в начале и конце : Нет
При вычислениях CRC использовались нулевые сэмплы : Да
Интерфейс : Встроенный Win32-интерфейс для Win NT/2000
Выходной формат : Внутренние WAV-операции
Формат сэмплов : 44.100 Гц; 16 бит; стерео
TOC извлечённого CD
Трек | Старт | Длительность | Начальный сектор | Конечный сектор
---------------------------------------------------------------------
1 | 0:00.00 | 5:46.00 | 0 | 25949
2 | 5:46.00 | 6:33.00 | 25950 | 55424
3 | 12:19.00 | 5:12.00 | 55425 | 78824
4 | 17:31.00 | 5:44.00 | 78825 | 104624
5 | 23:15.00 | 4:12.00 | 104625 | 123524
6 | 27:27.00 | 4:08.00 | 123525 | 142124
7 | 31:35.00 | 6:53.00 | 142125 | 173099
8 | 38:28.00 | 6:07.00 | 173100 | 200624
9 | 44:35.00 | 5:50.00 | 200625 | 226874
10 | 50:25.00 | 1:56.74 | 226875 | 235648
11 | 54:53.74 | 18:21.27 | 247049 | 329650
Характеристики диапазона извлечения и сообщения об ошибках
Выбранный диапазон
Имя файла D:\Djabe\Djabe - Unplugged At The New Orleans (CD1).wav
Пиковый уровень 96.6 %
Качество диапазона 99.9 %
CRC копии 6D2F1FC9
Копирование... OK
Ошибок не произошло
AccurateRip: сводка
Трек 1 нет в базе данных
Трек 2 нет в базе данных
Трек 3 нет в базе данных
Трек 4 нет в базе данных
Трек 5 нет в базе данных
Трек 6 нет в базе данных
Трек 7 нет в базе данных
Трек 8 нет в базе данных
Трек 9 нет в базе данных
Трек 10 нет в базе данных
Ни одного трека нет в базе AccurateRip
Конец отчёта
 
Содержание индексной карты (.CUE):
REM GENRE Jazz
REM DATE 2003
REM DISCID A2112B0B
REM COMMENT "ExactAudioCopy v0.99pb5"
PERFORMER "Djabe"
TITLE "Unplugged At The New Orleans (CD1)"
FILE "Djabe - Unplugged At The New Orleans (CD1).flac" WAVE
TRACK 01 AUDIO
TITLE "Summer In Zemplen"
PERFORMER "Djabe"
INDEX 01 00:00:00
TRACK 02 AUDIO
TITLE "First Step"
PERFORMER "Djabe"
INDEX 01 05:46:00
TRACK 03 AUDIO
TITLE "Ode"
PERFORMER "Djabe"
INDEX 01 12:19:00
TRACK 04 AUDIO
TITLE "Sorcerer"
PERFORMER "Djabe"
INDEX 01 17:31:00
TRACK 05 AUDIO
TITLE "Villlage Of The Sun"
PERFORMER "Djabe"
INDEX 01 23:15:00
TRACK 06 AUDIO
TITLE "Fug Ennekhel"
PERFORMER "Djabe"
INDEX 01 27:27:00
TRACK 07 AUDIO
TITLE "Witchi Tai To"
PERFORMER "Djabe"
INDEX 01 31:35:00
TRACK 08 AUDIO
TITLE "Caravan"
PERFORMER "Djabe"
INDEX 01 38:28:00
TRACK 09 AUDIO
TITLE "Passage"
PERFORMER "Djabe"
INDEX 01 44:35:00
TRACK 10 AUDIO
TITLE "Venezia"
PERFORMER "Djabe"
INDEX 01 50:25:00
 
Лог проверки качества
-----------------------
DON'T MODIFY THIS FILE
-----------------------
PERFORMER: auCDtect Task Manager, ver. 1.6.0 RC1 build 1.6.0.1
Copyright (c) 2008-2010 y-soft. All rights reserved
http://y-soft.org
ANALYZER: auCDtect: CD records authenticity detector, version 0.8.2
Copyright (c) 2004 Oleg Berngardt. All rights reserved.
Copyright (c) 2004 Alexander Djourik. All rights reserved.
FILE: Djabe - Unplugged At The New Orleans (CD1).flac
Size: 329140665 Hash: 32349293186223A6B08AF32A2A889394 Accuracy: -m0
Conclusion: CDDA 100%
Signature: CA5402FBE75070686D22D5736431614F1664C8A5
 
CD2
Трэклист:
1. Sheafs Are Dancing
2. Medley
3. Hamdussia
4. Ya Dellali
5. Clouds Dance
6. Djabe
 
Лог создания рипа (22. июля 2010)
Exact Audio Copy V0.99 prebeta 5 from 4. May 2009
Отчёт EAC об извлечении, выполненном 22. июля 2010, 18:20
Djabe / Unplugged At The New Orleans (CD2)
Дисковод: Optiarc DVD RW AD-7200A Adapter: 1 ID: 0
Режим чтения : Достоверность
Использование точного потока : Да
Отключение кэша аудио : Да
Использование указателей C2 : Нет
Коррекция смещения при чтении : 48
Способность читать области Lead-in и Lead-out : Нет
Заполнение пропущенных сэмплов тишиной : Да
Удаление блоков с тишиной в начале и конце : Нет
При вычислениях CRC использовались нулевые сэмплы : Да
Интерфейс : Встроенный Win32-интерфейс для Win NT/2000
Выходной формат : Внутренние WAV-операции
Формат сэмплов : 44.100 Гц; 16 бит; стерео
TOC извлечённого CD
Трек | Старт | Длительность | Начальный сектор | Конечный сектор
---------------------------------------------------------------------
1 | 0:00.00 | 6:10.01 | 0 | 27750
2 | 6:10.01 | 10:07.00 | 27751 | 73275
3 | 16:17.01 | 6:31.00 | 73276 | 102600
4 | 22:48.01 | 4:53.00 | 102601 | 124575
5 | 27:41.01 | 6:43.00 | 124576 | 154800
6 | 34:24.01 | 21:16.00 | 154801 | 250500
Характеристики диапазона извлечения и сообщения об ошибках
Выбранный диапазон
Имя файла D:\Djabe\Djabe - Unplugged At The New Orleans (CD2).wav
Пиковый уровень 96.6 %
Качество диапазона 100.0 %
CRC копии 24707414
Копирование... OK
Ошибок не произошло
AccurateRip: сводка
Трек 1 точность не определена (достоверность 1) [0E8DE9C5], AccurateRip вернул [8398B631]
Трек 2 точность не определена (достоверность 1) [4041AB11], AccurateRip вернул [2262DA5D]
Трек 3 точность не определена (достоверность 1) [DCF6932E], AccurateRip вернул [AFBB1B69]
Трек 4 точность не определена (достоверность 1) [CDC41528], AccurateRip вернул [7C9A25F9]
Трек 5 точность не определена (достоверность 1) [9FA6D0E7], AccurateRip вернул [8B8420EC]
Трек 6 точность не определена (достоверность 1) [1558BB23], AccurateRip вернул [CD0687CB]
Ни один трек не прошёл проверки на точность
В вашей базе может быть иной вариант штамповки диска
Конец отчёта
 
Содержание индексной карты (.CUE):
REM GENRE Jazz
REM DATE 2003
REM DISCID 500D0C06
REM COMMENT "ExactAudioCopy v0.99pb5"
PERFORMER "Djabe"
TITLE "Unplugged At The New Orleans (CD2)"
FILE "Djabe - Unplugged At The New Orleans (CD2).flac" WAVE
TRACK 01 AUDIO
TITLE "Sheafs Are Dancing"
PERFORMER "Djabe"
INDEX 01 00:00:00
TRACK 02 AUDIO
TITLE "Medley (Calm, Island, Desert)"
PERFORMER "Djabe"
INDEX 01 06:10:01
TRACK 03 AUDIO
TITLE "Hamdussja"
PERFORMER "Djabe"
INDEX 01 16:17:01
TRACK 04 AUDIO
TITLE "Ya Dellali"
PERFORMER "Djabe"
INDEX 01 22:48:01
TRACK 05 AUDIO
TITLE "Clouds Dance"
PERFORMER "Djabe"
INDEX 01 27:41:01
TRACK 06 AUDIO
TITLE "Djabe"
PERFORMER "Djabe"
INDEX 01 34:24:01
 
Лог проверки качества
-----------------------
DON'T MODIFY THIS FILE
-----------------------
PERFORMER: auCDtect Task Manager, ver. 1.6.0 RC1 build 1.6.0.1
Copyright (c) 2008-2010 y-soft. All rights reserved
http://y-soft.org
ANALYZER: auCDtect: CD records authenticity detector, version 0.8.2
Copyright (c) 2004 Oleg Berngardt. All rights reserved.
Copyright (c) 2004 Alexander Djourik. All rights reserved.
FILE: Djabe - Unplugged At The New Orleans (CD2).flac
Size: 348325812 Hash: 48B6E9AF89520A3C61C5067ED6EABE1F Accuracy: -m0
Conclusion: CDDA 100%
Signature: F84AD996E2E3CFC8858762C0C8F49C56665F95DF

 
Back
 
Состав
- Barabas Tamas / bass
- Egerhazi Attila / guitar
- Sipos Andras / vocals, percussion
- Kovacs Ferenc / trumpet, flugelhorn, violin, vocals
- Kovacs Zoltan / keyboards
- Banai Szilard / drums
Special guest:
- Said Tichiti / vocals, gembri
23:51
368
Нет комментариев. Ваш будет первым!