Поиск

(Contemporary Jazz, Avant-Garde Jazz) [CD] Angles 9 (Martin Kuchen, Goran Kajfes, Magnus Broo, Mats Aleklin, Alexander Zethson, Johan Berthling a.o.) - Disappeared Behind the Sun - 2017 [Clean Feed], FLAC (tracks+.cue), lossless

(Contemporary Jazz, Avant-Garde Jazz) [CD] Angles 9 (Martin Kuchen, Goran Kajfes, Magnus Broo, Mats Aleklin, Alexander Zethson, Johan Berthling a.o.) - Disappeared Behind the Sun - 2017 [Clean Feed], FLAC (tracks+.cue), lossless
Angles 9
Disappeared
behind the sun
Жанр: Contemporary Jazz, Avant-Garde Jazz
Страна-производитель диска: Portugal
Год издания: 2017
Издатель (лейбл): Clean Feed Records
Номер по каталогу: CF405
Аудиокодек: FLAC (*.flac)
Тип рипа: tracks+.cue
Битрейт аудио: lossless
Продолжительность: 44:09
Источник (релизер): спасибо 6060842
Наличие сканов: front
Треклист:
1. Equality & Death
(Mothers, Fathers, Where Are Ye?)
2. Ådror
3. Pacemaker
4. Disappeared Behind The Sun
5. Love, Flee Thy House (In Breslau)
 
Лог создания рипа
X Lossless Decoder version 20161007 (149.3)
XLD extraction logfile from 2017-02-22 16:31:16 +0300
Angles 9 / Disappeared Behind The Sun
Used drive : Apple SuperDrive (revision 2.03)
Media type : Pressed CD
Ripper mode : XLD Secure Ripper
Disable audio cache : OK for the drive with a cache less than 1375KiB
Make use of C2 pointers : NO
Read offset correction : 6
Max retry count : 100
Gap status : Analyzed, Appended (except HTOA)
TOC of the extracted CD
Track | Start | Length | Start sector | End sector
---------------------------------------------------------
1 | 00:00:00 | 07:38:37 | 0 | 34386
2 | 07:38:37 | 09:18:17 | 34387 | 76253
3 | 16:56:54 | 05:39:48 | 76254 | 101726
4 | 22:36:27 | 11:41:05 | 101727 | 154306
5 | 34:17:32 | 09:52:43 | 154307 | 198749
AccurateRip Summary
Disc not found in AccurateRip DB.
All Tracks
Album gain : -7.63 dB
Peak : 0.964203
Statistics
Read error : 0
Jitter error (maybe fixed) : 0
Retry sector count : 1
Damaged sector count : 0
Track 01
Filename : /Users/anch/Music/Grabbed/Angles 9/2017 F - Disappeared Behind The Sun/01 - Equality & Death (Mothers, Fathers, Where Are Ye).flac
Pre-gap length : 00:02:00
Track gain : -6.89 dB
Peak : 0.964203
CRC32 hash (test run) : 5CC0D1BD
CRC32 hash : 5CC0D1BD
CRC32 hash (skip zero) : 768D12D6
AccurateRip v1 signature : 41843CDD
AccurateRip v2 signature : E8C3F690
->Track not present in AccurateRip database.
Statistics
Read error : 0
Jitter error (maybe fixed) : 0
Retry sector count : 0
Damaged sector count : 0
Track 02
Filename : /Users/anch/Music/Grabbed/Angles 9/2017 F - Disappeared Behind The Sun/02 - Adror.flac
Track gain : -8.02 dB
Peak : 0.964203
CRC32 hash (test run) : E6021EA9
CRC32 hash : E6021EA9
CRC32 hash (skip zero) : 2FAC8A50
AccurateRip v1 signature : CCE4F5C4
AccurateRip v2 signature : 9B747655
->Track not present in AccurateRip database.
Statistics
Read error : 0
Jitter error (maybe fixed) : 0
Retry sector count : 0
Damaged sector count : 0
Track 03
Filename : /Users/anch/Music/Grabbed/Angles 9/2017 F - Disappeared Behind The Sun/03 - Pacemaker.flac
Track gain : -7.83 dB
Peak : 0.964203
CRC32 hash (test run) : EE23487F
CRC32 hash : EE23487F
CRC32 hash (skip zero) : E64D0055
AccurateRip v1 signature : 50421646
AccurateRip v2 signature : 0508C827
->Track not present in AccurateRip database.
Statistics
Read error : 0
Jitter error (maybe fixed) : 0
Retry sector count : 0
Damaged sector count : 0
Track 04
Filename : /Users/anch/Music/Grabbed/Angles 9/2017 F - Disappeared Behind The Sun/04 - Disappeared Behind The Sun.flac
Track gain : -7.34 dB
Peak : 0.964203
CRC32 hash (test run) : BD2B95F4
CRC32 hash : BD2B95F4
CRC32 hash (skip zero) : 51BB58B7
AccurateRip v1 signature : BA2BF503
AccurateRip v2 signature : 79E1606A
->Track not present in AccurateRip database.
Statistics
Read error : 0
Jitter error (maybe fixed) : 0
Retry sector count : 0
Damaged sector count : 0
Track 05
Filename : /Users/anch/Music/Grabbed/Angles 9/2017 F - Disappeared Behind The Sun/05 - Love, Flee Thy House (In Breslau).flac
Track gain : -7.72 dB
Peak : 0.964203
CRC32 hash (test run) : CD7F70B4
CRC32 hash : CD7F70B4
CRC32 hash (skip zero) : 4BCD2B42
AccurateRip v1 signature : 145EECCB
AccurateRip v2 signature : A1E39BFB
->Track not present in AccurateRip database.
Statistics
Read error : 0
Jitter error (maybe fixed) : 0
Retry sector count : 1
Damaged sector count : 0
No errors occurred
End of status report
-----BEGIN XLD SIGNATURE-----
AFs4t.oiHyGDX67JzqU1Ig4JZE0t4qq3RAmTfv4DIiXsLgv6AXPBVXb5u5Iv5ITJl8lH5LVWS1xeQTy_X0ub9MzwxrAdSQKYkpXi350
-----END XLD SIGNATURE-----
 
Содержание индексной карты (.CUE)
TITLE "Disappeared Behind The Sun"
PERFORMER "Angles 9"
REM GENRE "Free Jazz"
REM DATE "2017"
REM DISCNUMBER 1
REM TOTALDISCS 1
REM DISCID 370A5A05
REM REPLAYGAIN_ALBUM_GAIN -7.63 dB
REM REPLAYGAIN_ALBUM_PEAK 0.964203
FILE "01 - Equality & Death (Mothers, Fathers, Where Are Ye).flac" WAVE
TRACK 01 AUDIO
TITLE "Equality & Death (Mothers, Fathers, Where Are Ye?)"
PERFORMER "Angles 9"
ISRC PTNF11609764
REM REPLAYGAIN_TRACK_GAIN -6.89 dB
REM REPLAYGAIN_TRACK_PEAK 0.964203
INDEX 01 00:00:00
FILE "02 - Adror.flac" WAVE
TRACK 02 AUDIO
TITLE "Ådror"
PERFORMER "Angles 9"
ISRC PTNF11609765
REM REPLAYGAIN_TRACK_GAIN -8.02 dB
REM REPLAYGAIN_TRACK_PEAK 0.964203
INDEX 01 00:00:00
FILE "03 - Pacemaker.flac" WAVE
TRACK 03 AUDIO
TITLE "Pacemaker"
PERFORMER "Angles 9"
ISRC PTNF11609766
REM REPLAYGAIN_TRACK_GAIN -7.83 dB
REM REPLAYGAIN_TRACK_PEAK 0.964203
INDEX 01 00:00:00
FILE "04 - Disappeared Behind The Sun.flac" WAVE
TRACK 04 AUDIO
TITLE "Disappeared Behind The Sun"
PERFORMER "Angles 9"
ISRC PTNF11609767
REM REPLAYGAIN_TRACK_GAIN -7.34 dB
REM REPLAYGAIN_TRACK_PEAK 0.964203
INDEX 01 00:00:00
FILE "05 - Love, Flee Thy House (In Breslau).flac" WAVE
TRACK 05 AUDIO
TITLE "Love, Flee Thy House (In Breslau)"
PERFORMER "Angles 9"
ISRC PTNF11609768
REM REPLAYGAIN_TRACK_GAIN -7.72 dB
REM REPLAYGAIN_TRACK_PEAK 0.964203
INDEX 01 00:00:00
 
Об альбоме
The title of this album refers to people who have been jailed in solitary confinement, and this emotion and coiled energy of that circumstance imbues this excellent modern jazz album by this nine piece ensemble led by saxophonist Martin Kuchen. "Equality and Death (Mothers, Fathers, Where Are Ye?)" opens the album with raw scalding unaccompanied saxophone, then deeper bass builds in with forceful drums and horns framing the proceedings. Robust and vibrant horns build majestically, with the rhythm section setting a deep pocket to support the riffing horns. The music develops into a very broad and loud intensity with strong drumming and potent horns, before a rhythmic drum solo emerges. The full band builds back in to wrap things up, flexing its muscles as the music gains grandeur. There is a powerful intro for horns and deep bass on "Ador," making way for a fine patient trumpet solo over subtle rhythm. The full bands bursts into bloom with dynamic interplay, proclaiming itself to be a great progressive big band, producing a choppy theme before launching into a cool vibraphone solo. The full band comes back, sounding even larger then nine pieces, cruising to the center of the music and making swirling and kaleidoscopic waves of sound in an excellent collective improvisation. They throttle down a bit at the end to conclude the performance with a flourish. "Pacemaker" features horns that poke and joust, developing a cool theme for the percussion to burst in on and make funky. Meaty chunks of music are marinated with shades of vibraphone and ripe saxophones, as the horns riff merrily, making for pure exciting fun. There is a horn fanfare to open "Disappeared Behind The Sun," ebbing and flowing on the longest track of the album from a sad yearning theme for trumpet and piano duetting in open space, followed by brisk and vigorous full band playing in a forceful manner. A nice percussive section follows for heavy drumming and vibes, soon to be engulfed by the rest of the band as they swell forward led by bass, drums and baritone saxophone, in a torrential improvised section. The full band swells dynamically again to absorb this smaller cell, and develop stronger riffs to the conclusion. "Love, Flee Thy House (In Breslau)" concludes the album, led by subtle tenor saxophone and vibes which call the band to order, gradually building to powerfully beating bass and drums which provide the heart of the music and the wild fantasia of horns providing the soul. Mad riffing and pummeling and raw brass with jacked up trumpet and drums make for a very exciting price of music. This is superb modern jazz that is very compelling, The themes of the compositions are very simple and very memorable, and the improvisations are complexity yet accessible, with the band's fireworks matched by their subtlety. (Tim Niland, jazzandblues.blogspot.nl)
 
Состав

Martin Küchen - alto sax, tenor sax
Eirik Hegdal - baritone sax
Goran Kajfes - cornet
Mats Äleklin - trombone
Magnus Broo - trumpet
Alexander Zethson - piano
Mattias Ståhl - vibraphone
Johan Berthling - double bass
Andreas Werliin - drums
Что называется то пусто, то густо: с начала года почти ничего не появлялось для раздела (не то что любопытного - вообще), и тут посыпалось, да все такая "хóрошь"! Вот и этот альбом, ждал его с интересом (но и с опасением) после "Injuries" (2014), а интернационал взял да и не подкачал!
23:50
298
Нет комментариев. Ваш будет первым!